Название: Оскар
Оригинальное название: Oscar
Год выпуска: 1967
Страна: Франция
Жанр: комедия
Продолжительность: 01:23:08
Перевод: Дубляж
Субтитры: русские (Полные), French (Полные)
Режиссер: Эдуар Молинаро / Édouard Molinaro
В ролях: Луи де Фюнес (Bertrand Barnier), Клод Риш (Christian Martin), Марио Давид (Philippe Dubois), Жермэн Дельба (Charlotte), Клоди Жансак (Germaine Barnier), Агата Натансон (Colette Barnier), Доминик Паж (Bernadette), Поль Пребуа (Charles le domestique), Сильвия Сорель (Jacqueline), Филипп Валлори (Le chauffeur), Рогер Ван Хол (Oscar)
Описание:
Бертран Барнье - крупный промышленник, к которому с утра пораньше является его управляющий Кристиан. Он заявляет, что любит его дочь Колет, а после этого признается, что украл у предпринимателя кругленькую сумму. Вдобавок бизнесмен узнает, что его горничная увольняется и в одночасье становится баронессой.
Колет заявляет, что беременна от бывшего шофера по имени Оскар. Кроме того, выяснятся, что она вовсе не дочь Барнье и, не желая оставаться старой девой, готова выйти замуж за любого встречного...
К тому же, к этой истории примешиваются два черных чемодана, один из которых набит деньгами и драгоценностям, а другой женским нижним бельем... Как тут, от такого потока событий, происходящих в течение одного дня, «бедному» Бертрану не сойти с ума?!
Рейтинг
kinopoisk.ru: 8.052 (5772)
imdb.com: 7.60 (3369)
Качество: BDRip 1080p / 60 FPS
Формат: MKV
Видео кодек: AVC
Аудио кодек:AC3
Видео: AVC, 1920x816 (2.35:1), 14000 kbps, 59,997 fps, 0,149 bpp
Аудио №1: русский / AC3 / 2.0 / 48 kHz / 192 kbps / 16 bit |Дубляж|
Аудио №2: русский / AC3 / 2.0 / 48 kHz / 192 kbps / 16 bit |Многоголосый, закадровый Cinema Prestige|
Аудио №3: русский / AC3 / 2.0 / 48 kHz / 192 kbps / 16 bit |Многоголосый, закадровый SomeWax|
Аудио №4: русский / AC3 / 2.0 / 48 kHz / 192 kbps / 16 bit |Многоголосый, закадровый Светла|
Аудио №5: русский / AC3 / 2.0 / 48 kHz / 192 kbps / 16 bit |Двухголосый, закадровый РенТВ|
Аудио №6: русский / AC3 / 2.0 / 48 kHz / 192 kbps / 16 bit |Многоголосый, закадровый ТВЦ|
Аудио №7: французский / AC3 / 2.0 / 48 kHz / 640 kbps / 16 bit
Навигация по главам: есть

MI

General
Unique ID : 191963255020086986923745394782322331738 (0x906AC731FD349E6485532EECE18C905A)
Complete name : A:\1080p 60fps\Оскар (1967) 1080p 60fps.mkv
Format : Matroska
Format version : Version 4 / Version 2
File size : 9.18 GiB
Duration : 1h 23mn
Overall bit rate : 15.8 Mbps
Movie name : R.G. HD-Films by Tiberiumsun69 60fps
Encoded date : UTC 2014-12-27 08:01:07
Writing application : mkvmerge v7.4.0 ('Circles') 64bit built on Dec 12 2014 12:19:56
Writing library : libebml v1.3.0 + libmatroska v1.4.1
Attachment : Yes
Video
ID : 1
Format : AVC
Format/Info : Advanced Video Codec
Format profile : High@L4.1
Format settings, CABAC : Yes
Format settings, ReFrames : 4 frames
Codec ID : V_MPEG4/ISO/AVC
Duration : 1h 23mn
Bit rate : 14.0 Mbps
Width : 1 920 pixels
Height : 816 pixels
Display aspect ratio : 2.35:1
Frame rate : 59.997 fps
Color space : YUV
Chroma subsampling : 4:2:0
Bit depth : 8 bits
Scan type : Progressive
Bits/(Pixel*Frame) : 0.149
Stream size : 7.95 GiB (87%)
Title : R.G. HD-Films by Tiberiumsun69 60fps
Writing library : x264 core 142 r2491 24e4fed
Encoding settings : cabac=1 / ref=4 / deblock=1:-1:-1 / analyse=0x3:0 / me=umh / subme=10 / psy=1 / psy_rd=1.00:0.00 / mixed_ref=1 / me_range=32 / chroma_me=0 / trellis=2 / 8x8dct=1 / cqm=0 / deadzone=21,11 / fast_pskip=1 / chroma_qp_offset=-2 / threads=12 / lookahead_threads=1 / sliced_threads=0 / nr=0 / decimate=1 / interlaced=0 / bluray_compat=0 / constrained_intra=0 / bframes=5 / b_pyramid=2 / b_adapt=2 / b_bias=0 / direct=3 / weightb=1 / open_gop=0 / weightp=2 / keyint=250 / keyint_min=59 / scenecut=40 / intra_refresh=0 / rc=2pass / mbtree=0 / bitrate=14000 / ratetol=1.0 / qcomp=0.80 / qpmin=0 / qpmax=69 / qpstep=4 / cplxblur=20.0 / qblur=0.5 / ip_ratio=1.40 / pb_ratio=1.30 / aq=1:1.00
Language : English
Default : Yes
Forced : No
Audio #1
ID : 2
Format : AC-3
Format/Info : Audio Coding 3
Format profile : Dolby Digital
Mode extension : CM (complete main)
Codec ID : A_AC3
Duration : 1h 23mn
Bit rate mode : Constant
Bit rate : 192 Kbps
Channel(s) : 2 channels
Channel positions : Front: L R
Sampling rate : 48.0 KHz
Bit depth : 16 bits
Compression mode : Lossy
Stream size : 114 MiB (1%)
Title : Дубляж
Language : Russian
Default : Yes
Forced : No
Audio #2
ID : 3
Format : AC-3
Format/Info : Audio Coding 3
Format profile : Dolby Digital
Mode extension : CM (complete main)
Codec ID : A_AC3
Duration : 1h 23mn
Bit rate mode : Constant
Bit rate : 192 Kbps
Channel(s) : 2 channels
Channel positions : Front: L R
Sampling rate : 48.0 KHz
Bit depth : 16 bits
Compression mode : Lossy
Stream size : 114 MiB (1%)
Title : Многоголосый, закадровый Cinema Prestige
Language : Russian
Default : No
Forced : No
Audio #3
ID : 4
Format : AC-3
Format/Info : Audio Coding 3
Format profile : Dolby Digital
Mode extension : CM (complete main)
Codec ID : A_AC3
Duration : 1h 23mn
Bit rate mode : Constant
Bit rate : 192 Kbps
Channel(s) : 2 channels
Channel positions : Front: L R
Sampling rate : 48.0 KHz
Bit depth : 16 bits
Compression mode : Lossy
Stream size : 114 MiB (1%)
Title : Многоголосый, закадровый SomeWax
Language : Russian
Default : No
Forced : No
Audio #4
ID : 5
Format : AC-3
Format/Info : Audio Coding 3
Format profile : Dolby Digital
Mode extension : CM (complete main)
Codec ID : A_AC3
Duration : 1h 23mn
Bit rate mode : Constant
Bit rate : 192 Kbps
Channel(s) : 2 channels
Channel positions : Front: L R
Sampling rate : 48.0 KHz
Bit depth : 16 bits
Compression mode : Lossy
Stream size : 114 MiB (1%)
Title : Многоголосый, акадровый Светла
Language : Russian
Default : No
Forced : No
Audio #5
ID : 6
Format : AC-3
Format/Info : Audio Coding 3
Format profile : Dolby Digital
Mode extension : CM (complete main)
Codec ID : A_AC3
Duration : 1h 23mn
Bit rate mode : Constant
Bit rate : 192 Kbps
Channel(s) : 2 channels
Channel positions : Front: L R
Sampling rate : 48.0 KHz
Bit depth : 16 bits
Compression mode : Lossy
Stream size : 114 MiB (1%)
Title : Двухголосый, закадровый РенТВ
Language : Russian
Default : No
Forced : No
Audio #6
ID : 7
Format : AC-3
Format/Info : Audio Coding 3
Format profile : Dolby Digital
Mode extension : CM (complete main)
Codec ID : A_AC3
Duration : 1h 23mn
Bit rate mode : Constant
Bit rate : 192 Kbps
Channel(s) : 2 channels
Channel positions : Front: L R
Sampling rate : 48.0 KHz
Bit depth : 16 bits
Compression mode : Lossy
Stream size : 114 MiB (1%)
Title : Многоголосый, закадровый ТВЦ
Language : Russian
Default : No
Forced : No
Audio #7
ID : 8
Format : AC-3
Format/Info : Audio Coding 3
Mode extension : CM (complete main)
Codec ID : A_AC3
Duration : 1h 23mn
Bit rate mode : Constant
Bit rate : 640 Kbps
Channel(s) : 2 channels
Channel positions : Front: L R
Sampling rate : 48.0 KHz
Bit depth : 16 bits
Compression mode : Lossy
Stream size : 381 MiB (4%)
Title : Оригинал
Language : French
Default : No
Forced : No
Text #1
ID : 9
Format : UTF-8
Codec ID : S_TEXT/UTF8
Codec ID/Info : UTF-8 Plain Text
Title : Полные
Language : Russian
Default : No
Forced : No
Text #2
ID : 10
Format : UTF-8
Codec ID : S_TEXT/UTF8
Codec ID/Info : UTF-8 Plain Text
Title : Полные
Language : French
Default : No
Forced : No
Menu
00:00:00.000 : fr:Chapitre 1
00:04:21.000 : fr:Chapitre 2
00:09:50.000 : fr:Chapitre 3
00:11:48.000 : fr:Chapitre 4
00:16:18.000 : fr:Chapitre 5
00:19:17.000 : fr:Chapitre 6
00:23:26.000 : fr:Chapitre 7
00:26:24.000 : fr:Chapitre 8
00:33:19.000 : fr:Chapitre 9
00:37:57.000 : fr:Chapitre 10
00:42:52.000 : fr:Chapitre 11
00:47:21.000 : fr:Chapitre 12
00:54:10.000 : fr:Chapitre 13
00:58:23.000 : fr:Chapitre 14
01:02:41.000 : fr:Chapitre 15
01:07:15.000 : fr:Chapitre 16
01:15:44.000 : fr:Chapitre 17
01:22:15.000 : fr:Chapitre 18

Скриншоты



Последний раз редактировалось: bot (2016-07-07 11:19), всего редактировалось 1 раз

[Цитировать]
Kryl

Луи ))))))))))) Спасибо ....

[Цитировать]
Владимир 1965

Супер спасибо
 
Показать сообщения:    

Текущее время: 21-Сен 15:31

Часовой пояс: UTC + 3


Вы не можете начинать темы
Вы не можете отвечать на сообщения
Вы не можете редактировать свои сообщения
Вы не можете удалять свои сообщения
Вы не можете голосовать в опросах
Вы не можете прикреплять файлы к сообщениям
Вы не можете скачивать файлы