[Цитировать]
mimok

Оружейный барон / Lord of War (2005) BDRip 720p | 60fps«Первое правило торговца оружием – не будь подстрелен из своего же собственного товара»- Информация о фильме
Название: Оружейный барон
Оригинальное название: Lord of War
Год выхода: 2005
Жанр: Триллер, драма, криминал
Режиссер: Эндрю Никкол
Продюсер: Николас Кейдж, Норман Голайтли, Эндрю Никкол
В ролях: Николас Кейдж, Бриджет Мойнэхэн, Джаред Лето, Итан Хоук, Иэн Холк, Сэмми Ротиби, Имонн Уолкер, Дэвид Хармен, Евгений Лазарев, Джаспер Ленц, Стивен Грегор...
Описание фильма:
Родители братьев Орловых, старшего Юрия и младшего Виталия, покинули Украину и обосновались в Америке, на Брайтон-Бич, где открыли маленький ресторанчик. Дети же не рвались идти по родительским стопам. Юрий, раздумывая, чем заниматься, пришел к выводу: самое выгодное — торговать оружием. Потому что в мире, переполненном агрессией, оружие никогда не бывает лишним. Оно нужно и родственникам, дерущимся друг с другом, и конкурирующим бандам, и враждующим государствам.
Страна: Франция, США, Германия
Студия: Ascendant Pictures, Copag V, Endgame Entertainment
Продолжительность: 02:01:57
Перевод: Профессиональный (Дублированный)
Субтитры: Вшитые, отключаемые
Язык субтитров: Русский (Full), Английский (Full)

Дата мировой премьеры: 16 сентября 2005
Дата российской премьеры: 2 февраля 2006, «Гемини»
Дата выхода DVD релиза: 9 февраля 2006, «Союз-Видео»
Файл
Формат: MKV
Кодек: MPEG-4 AVC/H.264
Качество: BDRip 720p
Видео: ~ 8685 Кбит/сек, 1280 x 536, 59.940 кадров/сек
Аудио: AC3 5.1, 48.0 KHz, 448 Кбит/сек - Русский

MediaInfo

Общее
Уникальный идентификатор : 186127238793176109932386447307070516803 (0x8C06CD614A6F11F48AF21E7B48882E43)
Полное имя : D:\Торренты\Lord of War 60fps.mkv
Формат : Matroska
Версия формата : Version 2
Размер файла : 7,94 Гбайт
Продолжительность : 2 ч. 1 м.
Общий поток : 9319 Кбит/сек
Название фильма : Lord of War (2005) 1080p BD-Remux
Дата кодирования : UTC 2015-04-26 15:48:15
Программа кодирования : mkvmerge v6.9.1 ('Blue Panther') 64bit built on Apr 18 2014 18:23:38
Библиотека кодирования : libebml v1.3.0 + libmatroska v1.4.1
Видео
Идентификатор : 1
Формат : AVC
Формат/Информация : Advanced Video Codec
Профиль формата : High@L4.1
Параметр CABAC формата : Да
Параметр ReFrames формата : 6 кадров
Идентификатор кодека : V_MPEG4/ISO/AVC
Продолжительность : 2 ч. 1 м.
Битрейт : 8685 Кбит/сек
Ширина : 1280 пикселей
Высота : 536 пикселей
Соотношение сторон : 2,40:1
Режим частоты кадров : Постоянный
Частота кадров : 59,880 кадров/сек
Частота кадров в оригинале : 59,940 кадров/сек
Цветовое пространство : YUV
Субдискретизация насыщенности : 4:2:0
Битовая глубина : 8 бит
Тип развёртки : Прогрессивная
Бит/(Пиксели*Кадры) : 0.211
Размер потока : 7,40 Гбайт (93%)
Заголовок : Release by mimok
Библиотека кодирования : x264 core 130 r2273 b3065e6
Настройки программы : cabac=1 / ref=6 / deblock=1:0:0 / analyse=0x3:0x133 / me=umh / subme=8 / psy=1 / psy_rd=1.00:0.15 / mixed_ref=1 / me_range=20 / chroma_me=1 / trellis=2 / 8x8dct=1 / cqm=0 / deadzone=21,11 / fast_pskip=0 / chroma_qp_offset=-3 / threads=6 / lookahead_threads=2 / sliced_threads=0 / nr=0 / decimate=0 / interlaced=0 / bluray_compat=0 / constrained_intra=0 / bframes=8 / b_pyramid=2 / b_adapt=2 / b_bias=0 / direct=1 / weightb=1 / open_gop=0 / weightp=2 / keyint=250 / keyint_min=25 / scenecut=40 / intra_refresh=0 / rc=crf / mbtree=0 / crf=19.0 / qcomp=0.63 / qpmin=10 / qpmax=51 / qpstep=4 / ip_ratio=1.40 / pb_ratio=1.30 / aq=1:1.20
Default : Да
Forced : Нет
Аудио
Идентификатор : 2
Формат : AC-3
Формат/Информация : Audio Coding 3
Расширение режима : CM (complete main)
Параметр Endianness формата : Big
Идентификатор кодека : A_AC3
Продолжительность : 2 ч. 1 м.
Вид битрейта : Постоянный
Битрейт : 448 Кбит/сек
Каналы : 6 каналов
Расположение каналов : Front: L C R, Side: L R, LFE
Частота : 48,0 КГц
Битовая глубина : 16 бит
Метод сжатия : С потерями
Размер потока : 391 Мбайт (5%)
Заголовок : Dub
Язык : Russian
Default : Да
Forced : Нет
Текст #1
Идентификатор : 3
Формат : UTF-8
Идентификатор кодека : S_TEXT/UTF8
Идентификатор кодека/Информация : UTF-8 Plain Text
Заголовок : Full,TYCOON
Язык : Russian
Default : Да
Forced : Нет
Текст #2
Идентификатор : 4
Формат : UTF-8
Идентификатор кодека : S_TEXT/UTF8
Идентификатор кодека/Информация : UTF-8 Plain Text
Заголовок : Full
Язык : English
Default : Нет
Forced : Нет

Скринлист

Скриншоты:

Релиз подготовлен 60 - fps

 
Показать сообщения:    

Текущее время: 05-Дек 05:22

Часовой пояс: UTC + 3


Вы не можете начинать темы
Вы не можете отвечать на сообщения
Вы не можете редактировать свои сообщения
Вы не можете удалять свои сообщения
Вы не можете голосовать в опросах
Вы не можете прикреплять файлы к сообщениям
Вы не можете скачивать файлы