План побега 2 / Escape Plan 2: Hades (2018) BDRip 720p | 60 fps Властелин колец: Трилогия / The Lord of the Rings: Trilogy (2001-2003) BDRip-AVC | Extended Cut | 60 fps Красный воробей / Red Sparrow (2018) BDRip 720p | 60 fps Ограбление в ураган / The Hurricane Heist (2018) BDRip 720p | 60 fps Жажда смерти / Death Wish (2018) BDRip 1080p | 60 fps Тихое место / A Quiet Place (2018) BDRip 720p | 60 fps Мир будущего / Future World (2018) BDRip 1080p | 60 fps Апгрейд / Upgrade (2018) BDRip 1080p | 60 fps
  1. Стаж:
    4 года 1 месяц
    Сообщений:
    2427
    Пол:
    Мужской
    «An American Corporation, The Mexican Cartel, Chances Are This Won't End Well» Информация
    Название: Опасный бизнес
    Оригинальное название: Gringo
    Год выхода: 2018
    Жанр: Боевик, комедия, криминал
    Режиссер: Нэш Эдгертон
    Сценарий: Мэтью Стоун, Энтони Тамбакис
    Продюсер: А.Дж. Дикс, Нэш Эдгертон, Бет Коно
    В ролях: Джоэл Эдгертон, Шарлиз Терон, Дэвид Ойелоуо, Тэнди Ньютон, Башир Салахуддин, Гленн Кубота, Мелони Диас, Аманда Сайфред, Гарри Тредэвэй, Тео Таплитц

    Сюжет:
    Дерзкая длинноногая блондинка — она идеально подходит для опасного бизнеса. Однажды одному из ее подчиненных становится известна уникальная формула, за которой гоняется весь мир. Он решает инсценировать собственное похищение и потребовать выкуп у компании. Лучше этому умнику не рассчитывать на помощь своей эффектной начальницы, ведь для корпорации он предпочтительнее мертвый, чем живой.

    Страна: Австралия, США
    Продолжительность: 01:50:38

    Файл
    Кодек: H.264
    Формат: MKV
    Качество: BDRip 1080p | 60 fps
    Видео: 1920 x 800 (2.400) | 59.940 fps | 23.0 Мбит/сек
    Аудио 01: AC3 | 5.1 | 48 kHz | 384 kbps | 16 bit | Дубляж - iTunes |
    Аудио 02: AC3 | 5.1 | 48 kHz | 384 kbps | 16 bit | Дубляж - iTunes |
    Аудио 03: AC3 | 5.1 | 48 kHz | 448 kbps | 16 bit | english |
    Субтитры: английские

    MedifInfo

    Видео
    Идентификатор : 1
    Формат : AVC
    Формат/Информация : Advanced Video Codec
    Профиль формата : High@L4.1
    Параметр CABAC формата : Да
    Параметр ReFrames формата : 4 кадра
    Идентификатор кодека : V_MPEG4/ISO/AVC
    Продолжительность : 1 ч. 50 м.
    Битрейт : 23,0 Мбит/сек
    Ширина : 1920 пикселей
    Высота : 800 пикселей
    Соотношение сторон : 2,40:1
    Режим частоты кадров : Постоянный
    Частота кадров : 59,880 кадров/сек
    Частота кадров в оригинале : 59,940 кадров/сек
    Цветовое пространство : YUV
    Субдискретизация насыщенности : 4:2:0
    Битовая глубина : 8 бит
    Тип развёртки : Прогрессивная
    Бит/(Пиксели*Кадры) : 0.250
    Размер потока : 17,4 Гбайт (93%)
    Заголовок : www.60-fps.org
    Библиотека кодирования : x264 core 155 r2901 7d0ff22
    Настройки программы : cabac=1 / ref=3 / deblock=1:-3:-3 / analyse=0x3:0x113 / me=umh / subme=9 / psy=1 / psy_rd=1.00:0.25 / mixed_ref=1 / me_range=32 / chroma_me=1 / trellis=1 / 8x8dct=1 / cqm=0 / deadzone=6,6 / fast_pskip=1 / chroma_qp_offset=-4 / threads=12 / lookahead_threads=1 / sliced_threads=0 / nr=0 / decimate=0 / interlaced=0 / bluray_compat=0 / constrained_intra=0 / bframes=3 / b_pyramid=2 / b_adapt=1 / b_bias=0 / direct=1 / weightb=1 / open_gop=0 / weightp=2 / keyint=599 / keyint_min=59 / scenecut=40 / intra_refresh=0 / rc_lookahead=40 / rc=2pass / mbtree=1 / bitrate=22999 / ratetol=1.0 / qcomp=0.80 / qpmin=0 / qpmax=69 / qpstep=4 / cplxblur=20.0 / qblur=0.5 / vbv_maxrate=62500 / vbv_bufsize=78125 / nal_hrd=none / filler=0 / ip_ratio=1.10 / aq=1:0.50
    Default : Да
    Forced : Нет
    Аудио #1
    Идентификатор : 2
    Формат : AC-3
    Формат/Информация : Audio Coding 3
    Расширение режима : CM (complete main)
    Параметр Endianness формата : Big
    Идентификатор кодека : A_AC3
    Продолжительность : 1 ч. 50 м.
    Вид битрейта : Постоянный
    Битрейт : 384 Кбит/сек
    Каналы : 6 каналов
    Расположение каналов : Front: L C R, Side: L R, LFE
    Частота : 48,0 КГц
    Битовая глубина : 16 бит
    Метод сжатия : С потерями
    Размер потока : 304 Мбайт (2%)
    Заголовок : Дубляж - iTunes
    Язык : Russian
    Default : Да
    Forced : Нет
    Аудио #2
    Идентификатор : 3
    Формат : AC-3
    Формат/Информация : Audio Coding 3
    Расширение режима : CM (complete main)
    Параметр Endianness формата : Big
    Идентификатор кодека : A_AC3
    Продолжительность : 1 ч. 50 м.
    Вид битрейта : Постоянный
    Битрейт : 384 Кбит/сек
    Каналы : 6 каналов
    Расположение каналов : Front: L C R, Side: L R, LFE
    Частота : 48,0 КГц
    Битовая глубина : 16 бит
    Метод сжатия : С потерями
    Размер потока : 304 Мбайт (2%)
    Заголовок : Украинский - iTunes
    Язык : Ukrainian
    Default : Нет
    Forced : Нет
    Аудио #3
    Идентификатор : 4
    Формат : AC-3
    Формат/Информация : Audio Coding 3
    Расширение режима : CM (complete main)
    Параметр Endianness формата : Big
    Идентификатор кодека : A_AC3
    Продолжительность : 1 ч. 50 м.
    Вид битрейта : Постоянный
    Битрейт : 448 Кбит/сек
    Каналы : 6 каналов
    Расположение каналов : Front: L C R, Side: L R, LFE
    Частота : 48,0 КГц
    Битовая глубина : 16 бит
    Метод сжатия : С потерями
    Размер потока : 355 Мбайт (2%)
    Заголовок : english
    Язык : English
    Default : Нет
    Forced : Нет
    Текст
    Идентификатор : 5
    Формат : UTF-8
    Идентификатор кодека : S_TEXT/UTF8
    Идентификатор кодека/Информация : UTF-8 Plain Text
    Язык : English
    Default : Нет
    Forced : Нет
    Меню
    00:00:00.000 : en:00:00:00.000
    00:02:29.024 : en:00:02:29.024
    00:08:36.808 : en:00:08:36.808
    00:14:49.388 : en:00:14:49.388
    00:19:43.057 : en:00:19:43.057
    00:26:11.195 : en:00:26:11.195
    00:29:59.548 : en:00:29:59.548
    00:34:12.676 : en:00:34:12.676
    00:41:59.600 : en:00:41:59.600
    00:49:14.702 : en:00:49:14.702
    00:57:12.304 : en:00:57:12.304
    01:02:56.940 : en:01:02:56.940
    01:09:40.551 : en:01:09:40.551
    01:16:20.951 : en:01:16:20.951
    01:20:38.125 : en:01:20:38.125
    01:25:53.857 : en:01:25:53.857
    01:29:14.224 : en:01:29:14.224
    01:33:46.704 : en:01:33:46.704
    01:39:06.524 : en:01:39:06.524
    01:43:28.869 : en:01:43:28.869

    Релиз подготовлен 60 - fps



Вы не можете начинать темы
Вы не можете отвечать на сообщения
Вы не можете редактировать свои сообщения
Вы не можете удалять свои сообщения
Вы не можете голосовать в опросах
Вы не можете прикреплять файлы к сообщениям
Вы не можете скачивать файлы