[Цитировать]
Lucifer

Она - мужчина / She's the Man
Год выпуска: 2006 г.
Жанр: Комедия, Мелодрама.
Страна: США.
Режиссер: Энди Фикмен.
Продолжительность: 01:45:11
Перевод: Профессиональный (дублированный)
В ролях: Аманда Байнс, Чаннинг Татум, Лаура Рэмси, Винни Джонс, Дэвид Кросс, Джули Хэгерти, Роберт Хоффман, Александра Брекенридж, Джонатан Садовский, Аманда Крю, Джессика Лукас, Брэндон Джей МакЛарен, Клифтон Маккейб Мюррэй, Джеймс Снайдер, Джеймс Кирк ... »
Описание: 17-летняя Виола играет в футбол лучше, чем любой мальчишка. Когда футбольные тренировки для девушек отменяются, она решается на отчаянный шаг - выдает себя за брата-близнеца Себастьяна.
Живя в образе юноши, Виола влюбляется в своего соседа по комнате Дюка, который в свою очередь влюблен в студентку Оливию, а Оливия очарована Виолой, не зная, что она девушка. В день решающей игры Виоле остается одно: доказать, что она – настоящий мужчина. По крайней мере, на футбольном поле…


Формат видео: MKV
Качество видео: BDRip 720p | 60fps
Видео кодек: H.264
Аудио кодек: AC3
Видео: 1280x720 | 59.940 fps
Аудио: AC3 | 5.1 | 48 kHz | 384 kbps | 8 bit | Дубляж |

Отчёт MediaInfo

Общее
Уникальный идентификатор : 193483248706979614351297239829832157242 (0x918F84AB857D327DA3E4CD85DF1A483A)
Полное имя : D:\Видео\Она - мужчина 2006.mkv
Формат : Matroska
Версия формата : Version 2
Размер файла : 3,96 Гбайт
Продолжительность : 1 ч. 45 м.
Общий поток : 5384 Кбит/сек
Дата кодирования : UTC 2016-04-03 17:49:24
Программа кодирования : mkvmerge v5.8.0 ('No Sleep / Pillow') built on Sep 2 2012 15:37:04
Библиотека кодирования : libebml v1.2.3 + libmatroska v1.3.0
Видео
Идентификатор : 1
Формат : AVC
Формат/Информация : Advanced Video Codec
Профиль формата : High@L3.2
Параметр CABAC формата : Да
Параметр ReFrames формата : 4 кадра
Режим смешивания : Header stripping
Идентификатор кодека : V_MPEG4/ISO/AVC
Продолжительность : 1 ч. 45 м.
Битрейт : 4999 Кбит/сек
Ширина : 1280 пикселей
Высота : 720 пикселей
Соотношение сторон : 16:9
Режим частоты кадров : Постоянный
Частота кадров : 59,940 (60000/1001) кадров/сек
Цветовое пространство : YUV
Субдискретизация насыщенности : 4:2:0
Битовая глубина : 8 бит
Тип развёртки : Прогрессивная
Бит/(Пиксели*Кадры) : 0.090
Размер потока : 3,60 Гбайт (91%)
Библиотека кодирования : x264 core 148 r2638 7599210
Настройки программы : cabac=1 / ref=3 / deblock=1:0:0 / analyse=0x3:0x113 / me=hex / subme=7 / psy=1 / psy_rd=1.00:0.00 / mixed_ref=1 / me_range=16 / chroma_me=1 / trellis=1 / 8x8dct=1 / cqm=0 / deadzone=21,11 / fast_pskip=1 / chroma_qp_offset=-2 / threads=6 / lookahead_threads=1 / sliced_threads=0 / nr=0 / decimate=1 / interlaced=0 / bluray_compat=0 / constrained_intra=0 / bframes=3 / b_pyramid=2 / b_adapt=1 / b_bias=0 / direct=1 / weightb=1 / open_gop=0 / weightp=2 / keyint=599 / keyint_min=59 / scenecut=40 / intra_refresh=0 / rc_lookahead=40 / rc=2pass / mbtree=1 / bitrate=4999 / ratetol=1.0 / qcomp=0.60 / qpmin=0 / qpmax=69 / qpstep=4 / cplxblur=20.0 / qblur=0.5 / ip_ratio=1.40 / aq=1:1.00
Default : Да
Forced : Нет
Аудио
Идентификатор : 2
Формат : AC-3
Формат/Информация : Audio Coding 3
Расширение режима : CM (complete main)
Параметр Endianness формата : Big
Режим смешивания : Header stripping
Идентификатор кодека : A_AC3
Продолжительность : 1 ч. 45 м.
Вид битрейта : Постоянный
Битрейт : 384 Кбит/сек
Каналы : 6 каналов
Расположение каналов : Front: L C R, Side: L R, LFE
Частота : 48,0 КГц
Частота кадров : 31,250 кадров/сек (1536 spf)
Метод сжатия : С потерями
Размер потока : 289 Мбайт (7%)
Заголовок : Dub
Язык : Russian
Default : Да
Forced : Нет

[Цитировать]
Тимур Артыков

зачем вообще удваивать кадры в таких комедиях? Там же нет никакого экшена

[Цитировать]
Kryl

5645зачем вообще удваивать кадры в таких комедиях? Там же нет никакого экшена
А причем тут экшен ?

[Цитировать]
Тимур Артыков

Kryl, как то раз ты и сам говорил что такие фильмы рипить нету смысла. Улыбаюсь . Можешь настроить систему уведомлений, а то иногда забываю отвечать на сообщения?

[Цитировать]
Kryl

5647Kryl, как то раз ты и сам говорил что такие фильмы рипить нету смысла. Улыбаюсь . Можешь настроить систему уведомлений, а то иногда забываю отвечать на сообщения?
Фиг знает , если честно то не помню про такой разговор , был один разговор про черно-белый клип , но не про фильмы .
Система есть и работает , если в форуме есть новое сообщение , то значок на против форума становиться цветным , можно конечно поставить кнопку ОТСЛЕЖИВАТЬ ТЕМУ , но она ни кому не нужна будет )

[Цитировать]
Тимур Артыков

Kryl, ладно как нибудь разберусь

[Цитировать]
roberthls

Удивляюсь
 
Показать сообщения:    

Текущее время: 10-Дек 19:39

Часовой пояс: UTC + 3


Вы не можете начинать темы
Вы не можете отвечать на сообщения
Вы не можете редактировать свои сообщения
Вы не можете удалять свои сообщения
Вы не можете голосовать в опросах
Вы не можете прикреплять файлы к сообщениям
Вы не можете скачивать файлы