«Без хорошей причины сюда не лезут»- Информация
Название: Омерзительная восьмерка
Оригинальное название: The Hateful Eight
Год выхода: 2015
Жанр: триллер, драма, криминал, детектив, вестерн
Режиссер: Квентин Тарантино
Сценарий: Квентин Тарантино
Продюсер: Ричард Н. Гладштейн, Шеннон МакИнтош, Стейси Шер
В ролях: Курт Рассел, Сэмюэл Л. Джексон, Тим Рот, Майкл Мэдсен, Дженнифер Джейсон Ли, Ченнинг Татум, Уолтон Гоггинс, Зои Белл
--Сюжет:
США после Гражданской войны. Легендарный охотник за головами Джон Рут по кличке Вешатель конвоирует заключенную. По пути к ним прибиваются еще несколько путешественников. Снежная буря вынуждает компанию искать укрытие в лавке на отшибе, где уже расположилось весьма пестрое общество: генерал конфедератов, мексиканец, ковбой… И один из них — не тот, за кого себя выдает.- - Страна: США
Продолжительность: 02:47:44

Файл
Кодек: MPEG4/ISO/AVC H.264
Формат: MKV
Качество: BDRip 1080p | 60 fps
Видео: 1920 x 696 (2.759) | 59.940 fps | 13.9 Мбит/сек
Аудио 1: AC3 | 5.1 | 48 kHz | 384 kbps | 16 bit | Дубляж, iTunes Russia| |
Аудио 2: DTS-HD | 5.1 | 48 kHz | 3508 kbps | 24 bit | English |
[ Субтитры: Русский (А.Матвеев - ненорматив ), Английский

MedifInfo

Video
ID : 1
Format : AVC
Format/Info : Advanced Video Codec
Format profile : High@L4.1
Format settings, CABAC : Yes
Format settings, ReFrames : 4 frames
Codec ID : V_MPEG4/ISO/AVC
Duration : 2h 47mn
Bit rate : 10 000 Kbps
Width : 1 920 pixels
Height : 696 pixels
Display aspect ratio : 2.759
Frame rate mode : Constant
Frame rate : 59.940 (59940/1000) fps
Color space : YUV
Chroma subsampling : 4:2:0
Bit depth : 8 bits
Scan type : Progressive
Bits/(Pixel*Frame) : 0.125
Stream size : 11.7 GiB (72%)
Writing library : x264 core 146 r2538 121396c
Encoding settings : cabac=1 / ref=2 / deblock=1:0:0 / analyse=0x3:0x113 / me=hex / subme=6 / psy=1 / psy_rd=1.00:0.20 / mixed_ref=1 / me_range=16 / chroma_me=1 / trellis=1 / 8x8dct=1 / cqm=0 / deadzone=21,11 / fast_pskip=1 / chroma_qp_offset=-3 / threads=12 / lookahead_threads=2 / sliced_threads=0 / nr=0 / decimate=0 / interlaced=0 / bluray_compat=0 / constrained_intra=0 / bframes=3 / b_pyramid=2 / b_adapt=1 / b_bias=0 / direct=1 / weightb=1 / open_gop=0 / weightp=1 / keyint=600 / keyint_min=59 / scenecut=40 / intra_refresh=0 / rc_lookahead=30 / rc=2pass / mbtree=1 / bitrate=10000 / ratetol=1.0 / qcomp=0.60 / qpmin=0 / qpmax=69 / qpstep=4 / cplxblur=20.0 / qblur=0.5 / vbv_maxrate=14000 / vbv_bufsize=14000 / nal_hrd=none / filler=0 / ip_ratio=1.40 / aq=1:1.00
Language : English
Default : Yes
Forced : No
Audio #1
ID : 2
Format : AC-3
Format/Info : Audio Coding 3
Mode extension : CM (complete main)
Format settings, Endianness : Big
Codec ID : A_AC3
Duration : 2h 47mn
Bit rate mode : Constant
Bit rate : 384 Kbps
Channel(s) : 6 channels
Channel positions : Front: L C R, Side: L R, LFE
Sampling rate : 48.0 KHz
Frame rate : 31.250 fps (1536 spf)
Compression mode : Lossy
Stream size : 461 MiB (3%)
Title : 48 kHz, AC3, 5.1, 384 kbps
Language : Russian
Default : Yes
Forced : No
Audio #2
ID : 3
Format : DTS
Format/Info : Digital Theater Systems
Format profile : MA / Core
Mode : 16
Format settings, Endianness : Big
Codec ID : A_DTS
Duration : 2h 47mn
Bit rate mode : Variable / Constant
Bit rate : 3 508 Kbps / 1 509 Kbps
Channel(s) : 6 channels
Channel positions : Front: L C R, Side: L R, LFE
Sampling rate : 48.0 KHz
Frame rate : 93.750 fps (512 spf)
Bit depth : 24 bits
Compression mode : Lossless / Lossy
Stream size : 4.11 GiB (25%)
Title : 48 kHz/24-bit, DTS-HD MA 5.1, 3508 kbps
Language : English
Default : No
Forced : No
Text #1
ID : 4
Format : PGS
Muxing mode : zlib
Codec ID : S_HDMV/PGS
Codec ID/Info : Picture based subtitle format used on BDs/HD-DVDs
Duration : 2h 47mn
Bit rate : 16.8 Kbps
Count of elements : 6090
Stream size : 20.1 MiB (0%)
Language : English
Default : No
Forced : No
Text #2
ID : 5
Format : UTF-8
Codec ID : S_TEXT/UTF8
Codec ID/Info : UTF-8 Plain Text
Duration : 2h 18mn
Bit rate : 1 bps
Count of elements : 13
Stream size : 1.02 KiB (0%)
Title : forced
Language : Russian
Default : Yes
Forced : No
Text #3
ID : 6
Format : UTF-8
Codec ID : S_TEXT/UTF8
Codec ID/Info : UTF-8 Plain Text
Duration : 2h 41mn
Bit rate : 90 bps
Count of elements : 1740
Stream size : 107 KiB (0%)
Language : Russian
Default : No
Forced : No
Menu
00:00:00.000 : en:Chapter 01
00:04:33.523 : en:Chapter 02
00:11:36.112 : en:Chapter 03
00:22:01.361 : en:Chapter 04
00:35:02.433 : en:Chapter 05
00:43:31.900 : en:Chapter 06
00:52:12.212 : en:Chapter 07
00:59:04.499 : en:Chapter 08
01:08:30.314 : en:Chapter 09
01:16:10.857 : en:Chapter 10
01:25:18.446 : en:Chapter 11
01:35:06.492 : en:Chapter 12
01:42:20.175 : en:Chapter 13
01:50:33.335 : en:Chapter 14
01:59:32.498 : en:Chapter 15
02:06:43.053 : en:Chapter 16
02:13:26.623 : en:Chapter 17
02:19:59.724 : en:Chapter 18
02:24:17.023 : en:Chapter 19
02:34:08.113 : en:Chapter 20
02:39:38.026 : en:Chapter 21
02:43:22.751 : en:Chapter 22
02:47:44.679 : en:Chapter 23

[Цитировать]
chos

как оплатить с paypal, вот что выходит
The payment you initiated has been blocked because PayPal can only facilitate payments between Russian residents when they transact in Russian Ruble. Please go back to the merchant website and choose to pay in Russian Ruble, or alternatively choose another payment method.

[Цитировать]
mimok

5742как оплатить с paypal, вот что выходит
The payment you initiated has been blocked because PayPal can only facilitate payments between Russian residents when they transact in Russian Ruble. Please go back to the merchant website and choose to pay in Russian Ruble, or alternatively choose another payment method.
заходите в PayPal , нажимаете Отправить средства, указываете kryl1979@yandex.ru в коментариях к отправке указываете свой ник

[Цитировать]
psychologist

а чего звук с лицензии не залить?

[Цитировать]
Kryl

6086а чего звук с лицензии не залить?
не вижу проблем . взяли и сделали себе с любым звуком .
во первых автора именно этой поделки тут на сайте нет .
во вторых залито 2 апреля , и думаю навряд ли кто то будет перепаковывать звуковые дорожки .

[Цитировать]
psychologist

Да вообще по трекеру как-то 60 ФПС это круть, но никто за качественным звуком и 1080р не парится, почему-то.
 
Показать сообщения:    

Текущее время: 05-Дек 05:25

Часовой пояс: UTC + 3


Вы не можете начинать темы
Вы не можете отвечать на сообщения
Вы не можете редактировать свои сообщения
Вы не можете удалять свои сообщения
Вы не можете голосовать в опросах
Вы не можете прикреплять файлы к сообщениям
Вы не можете скачивать файлы