[Цитировать]
Kryl

«Без хорошей причины сюда не лезут»- Информация
Название: Омерзительная восьмерка
Оригинальное название: The Hateful Eight
Год выхода: 2015
Жанр: триллер, драма, криминал, детектив, вестерн
Режиссер: Квентин Тарантино
Сценарий: Квентин Тарантино
Продюсер: Ричард Н. Гладштейн, Шеннон МакИнтош, Стейси Шер
В ролях: Курт Рассел, Сэмюэл Л. Джексон, Тим Рот, Майкл Мэдсен, Дженнифер Джейсон Ли, Ченнинг Татум, Уолтон Гоггинс, Зои Белл
--Сюжет:
США после Гражданской войны. Легендарный охотник за головами Джон Рут по кличке Вешатель конвоирует заключенную. По пути к ним прибиваются еще несколько путешественников. Снежная буря вынуждает компанию искать укрытие в лавке на отшибе, где уже расположилось весьма пестрое общество: генерал конфедератов, мексиканец, ковбой… И один из них — не тот, за кого себя выдает.- - Страна: США
Продолжительность: 02:47:44

Файл
Кодек: MPEG4/ISO/AVC H.264
Формат: MKV
Качество: BDRip 1080p | 60 fps
Видео: 1920 x 696 (2.759) | 60.000 fps | 20.0 Мбит/сек
Аудио 1: DTS-HD | 5.1 | 48 kHz | 3673 kbps | 24 bit | AVO (Есарев) |
Аудио 2: DTS-HD | 5.1 | 48 kHz | 3673 kbps | 24 bit | AVO (Матвеев (Doctor Joke) |
Аудио 3: DTS-HD | 5.1 | 48 kHz | 3508 kbps | 24 bit | English |
Аудио 4: AC3 | 5.1 | 48 kHz | 448 kbps | 16 bit | MVO (Paradox & Omskbird records) |
Аудио 5: AC3 | 5.1 | 48 kHz | 640 kbps | 16 bit | Дубляж (чистый звук, центр с линии) WetY |
Аудио 6: AC3 | 2.0 | 48 kHz | 192 kbps | 16 bit | Дубляж (чистый звук + Есарев) |
Субтитры: Русский (А.Матвеев - ненорматив ), Английский

MedifInfo

Видео
Идентификатор : 1
Формат : AVC
Формат/Информация : Advanced Video Codec
Профиль формата : High@L4.1
Параметр CABAC формата : Да
Параметр ReFrames формата : 6 кадров
Идентификатор кодека : V_MPEG4/ISO/AVC
Продолжительность : 2 ч. 47 м.
Номинальный битрейт : 20,0 Мбит/сек
Ширина : 1920 пикселей
Высота : 696 пикселей
Соотношение сторон : 2,759
Режим частоты кадров : Постоянный
Частота кадров : 60,000 кадров/сек
Частота кадров в оригинале : 59,940 кадров/сек
Цветовое пространство : YUV
Субдискретизация насыщенности : 4:2:0
Битовая глубина : 8 бит
Тип развёртки : Прогрессивная
Бит/(Пиксели*Кадры) : 0.249
Заголовок : www.60-fps.org
Библиотека кодирования : x264 core 148 r2638 7599210
Настройки программы : cabac=1 / ref=6 / deblock=1:-3:-3 / analyse=0x3:0x133 / me=esa / subme=9 / psy=1 / psy_rd=1.00:0.25 / mixed_ref=1 / me_range=32 / chroma_me=1 / trellis=2 / 8x8dct=1 / cqm=0 / deadzone=6,6 / fast_pskip=1 / chroma_qp_offset=-4 / threads=12 / lookahead_threads=1 / sliced_threads=0 / nr=0 / decimate=0 / interlaced=0 / bluray_compat=0 / constrained_intra=0 / bframes=3 / b_pyramid=2 / b_adapt=2 / b_bias=0 / direct=3 / weightb=1 / open_gop=0 / weightp=2 / keyint=599 / keyint_min=59 / scenecut=40 / intra_refresh=0 / rc_lookahead=60 / rc=2pass / mbtree=1 / bitrate=19999 / ratetol=1.0 / qcomp=0.80 / qpmin=0 / qpmax=69 / qpstep=4 / cplxblur=20.0 / qblur=0.5 / vbv_maxrate=62500 / vbv_bufsize=78125 / nal_hrd=none / filler=0 / ip_ratio=1.10 / aq=1:0.50
Default : Да
Forced : Нет
Аудио #1
Идентификатор : 2
Формат : DTS
Формат/Информация : Digital Theater Systems
Профиль формата : MA / Core
Режим : 16
Параметр Endianness формата : Big
Идентификатор кодека : A_DTS
Продолжительность : 2 ч. 47 м.
Вид битрейта : Переменный
Битрейт : Неизвестно / 1509 Кбит/сек
Каналы : 6 каналов
Расположение каналов : Front: L C R, Side: L R, LFE
Частота : 48,0 КГц
Битовая глубина : 24 бит
Метод сжатия : Без потерь / Lossy
Заголовок : AVO, Д.Есарев
Язык : Russian
Default : Да
Forced : Нет
Аудио #2
Идентификатор : 3
Формат : DTS
Формат/Информация : Digital Theater Systems
Профиль формата : MA / Core
Режим : 16
Параметр Endianness формата : Big
Идентификатор кодека : A_DTS
Продолжительность : 2 ч. 47 м.
Вид битрейта : Переменный
Битрейт : Неизвестно / 1509 Кбит/сек
Каналы : 6 каналов
Расположение каналов : Front: L C R, Side: L R, LFE
Частота : 48,0 КГц
Битовая глубина : 24 бит
Метод сжатия : Без потерь / Lossy
Заголовок : AVO, А.Матвеев
Язык : Russian
Default : Нет
Forced : Нет
Аудио #3
Идентификатор : 4
Формат : DTS
Формат/Информация : Digital Theater Systems
Профиль формата : MA / Core
Режим : 16
Параметр Endianness формата : Big
Идентификатор кодека : A_DTS
Продолжительность : 2 ч. 47 м.
Вид битрейта : Переменный
Битрейт : Неизвестно / 1509 Кбит/сек
Каналы : 6 каналов
Расположение каналов : Front: L C R, Side: L R, LFE
Частота : 48,0 КГц
Битовая глубина : 24 бит
Метод сжатия : Без потерь / Lossy
Заголовок : ENG
Язык : English
Default : Нет
Forced : Нет
Аудио #4
Идентификатор : 5
Формат : AC-3
Формат/Информация : Audio Coding 3
Расширение режима : CM (complete main)
Параметр Endianness формата : Big
Идентификатор кодека : A_AC3
Продолжительность : 2 ч. 47 м.
Вид битрейта : Постоянный
Битрейт : 448 Кбит/сек
Каналы : 6 каналов
Расположение каналов : Front: L C R, Side: L R, LFE
Частота : 48,0 КГц
Битовая глубина : 16 бит
Метод сжатия : С потерями
Размер потока : 538 Мбайт (1%)
Заголовок : MVO (Paradox & Omskbird records)
Язык : Russian
Default : Нет
Forced : Нет
Аудио #5
Идентификатор : 6
Формат : AC-3
Формат/Информация : Audio Coding 3
Расширение режима : CM (complete main)
Параметр Endianness формата : Big
Идентификатор кодека : A_AC3
Продолжительность : 2 ч. 47 м.
Вид битрейта : Постоянный
Битрейт : 640 Кбит/сек
Каналы : 6 каналов
Расположение каналов : Front: L C R, Side: L R, LFE
Частота : 48,0 КГц
Битовая глубина : 16 бит
Метод сжатия : С потерями
Размер потока : 768 Мбайт (2%)
Заголовок : Дубляж 5.1 (Line)
Язык : Russian
Default : Нет
Forced : Нет
Аудио #6
Идентификатор : 7
Формат : AC-3
Формат/Информация : Audio Coding 3
Расширение режима : CM (complete main)
Параметр Endianness формата : Big
Идентификатор кодека : A_AC3
Продолжительность : 2 ч. 47 м.
Вид битрейта : Постоянный
Битрейт : 192 Кбит/сек
Каналы : 2 канала
Расположение каналов : Front: L R
Частота : 48,0 КГц
Битовая глубина : 16 бит
Метод сжатия : С потерями
Размер потока : 230 Мбайт (1%)
Заголовок : Дубляж 2.0 + Д.Есарев
Язык : Russian
Default : Нет
Forced : Нет
Текст #1
Идентификатор : 8
Формат : UTF-8
Идентификатор кодека : S_TEXT/UTF8
Идентификатор кодека/Информация : UTF-8 Plain Text
Заголовок : А.Матвеев
Язык : Russian
Default : Нет
Forced : Нет
Текст #2
Идентификатор : 9
Формат : UTF-8
Идентификатор кодека : S_TEXT/UTF8
Идентификатор кодека/Информация : UTF-8 Plain Text
Язык : English
Default : Нет
Forced : Нет
Меню
00:00:00.000 : en:Chapter 01
00:04:33.523 : en:Chapter 02
00:11:36.112 : en:Chapter 03
00:22:01.361 : en:Chapter 04
00:35:02.433 : en:Chapter 05
00:43:31.900 : en:Chapter 06
00:52:12.212 : en:Chapter 07
00:59:04.499 : en:Chapter 08
01:08:30.314 : en:Chapter 09
01:16:10.857 : en:Chapter 10
01:25:18.446 : en:Chapter 11
01:35:06.492 : en:Chapter 12
01:42:20.175 : en:Chapter 13
01:50:33.335 : en:Chapter 14
01:59:32.498 : en:Chapter 15
02:06:43.053 : en:Chapter 16
02:13:26.623 : en:Chapter 17
02:19:59.724 : en:Chapter 18
02:24:17.023 : en:Chapter 19
02:34:08.113 : en:Chapter 20
02:39:38.026 : en:Chapter 21
02:43:22.751 : en:Chapter 22
02:47:44.679 : en:Chapter 23

Релиз подготовлен 60 - fps

[60-fps.org].t1883.torrent
Торрент: Зарегистрирован [ 2016-03-10 17:58 ] · 3E0A3890F2FED93E49B142E8D67E46F428622B8F

Скачать .torrent

Скачать

95 KB

Статус: проверено
Скачан: 140 раз
Поблагодарили:
Размер: 37,67 GB
 
Похожие Темы


Последний раз редактировалось: Kryl (2016-07-04 22:23), всего редактировалось 2 раз(а)

[Цитировать]
komergan

спасибо большое очень ждали Смеюсь

[Цитировать]
BliTz

Вес конечно поражающий,это все аудио дорожки так весят?

[Цитировать]
Kryl

5418Вес конечно поражающий,это все аудио дорожки так весят?
Видео весит где то 23-24 гига , остальное дороги

[Цитировать]
Tranch

По атмосфере, музыкальному сопровождению (тот же неподражаемый Эннио Морриконе) и саспенсу, картина напоминает The Thing - 1982, но, стоит понимать, что это абсолютно разные жанры.
Спасибо за релиз!
 
Показать сообщения:    

Текущее время: 22-Фев 16:24

Часовой пояс: UTC + 3


Вы не можете начинать темы
Вы не можете отвечать на сообщения
Вы не можете редактировать свои сообщения
Вы не можете удалять свои сообщения
Вы не можете голосовать в опросах
Вы не можете прикреплять файлы к сообщениям
Вы можете скачивать файлы