Rammstein (БЕЗ ЦЕНЗУРЫ)| WEBRip 1080p | 60 fps Britney Spears - Oops! I Did It Again Uncut (2009) HD 1080p | 60 fps BLACKPINK | WEBRip 1080p | 60 fps Evanescence - Synthesis Live (2018) BDRip 1080p | 60 fps Britney Spears - Toxic (2004) HDTVRip 1080p | 60 fps Jennifer Lopez ft. Iggy Azalea - Booty (2014) Full HD 1080p | 60 fps ITZY | WEBRip 1080p | 60 fps Luis Fonsi - Despacito ft. Daddy Yankee (2017) WEBRip 1080p | 60 fps
  1. Longevity:
    5 years 11 months
    Posts:
    2419
    Gender:
    Male
    - Танец Оля Полякова - Любовь-Морковь (2015) Full HD 1080p | 60 fps Танец- -Информация о Клипе
    Исполнитель: Оля Полякова
    Название: Любовь-Морковь
    Год выхода: 2015
    Продолжительность: 00:03:41-Файл
    Кодек: MPEG4/ISO/AVC/ H.264
    Формат: MKV
    Качество: Full HD 1080p | 60 fps
    Видео : 1920 x 1012 (1.897)| 59.940 fps 20.0 Мбит/сек
    Аудио : DTS | 1413 Кбит/сек | 48.0 KHz | 2.0 channels

    MediaInfo

    Видео
    Идентификатор : 1
    Формат : AVC
    Формат/Информация : Advanced Video Codec
    Профиль формата : High@L4.2
    Параметр CABAC формата : Да
    Параметр ReFrames формата : 3 кадра
    Параметр GOP формата : M=3, N=60
    Идентификатор кодека : V_MPEG4/ISO/AVC
    Продолжительность : 3 м. 41 с.
    Вид битрейта : Переменный
    Битрейт : 19,6 Мбит/сек
    Максимальный битрейт : 20,0 Мбит/сек
    Ширина : 1920 пикселей
    Высота : 1012 пикселей
    Соотношение сторон : 1,897
    Режим частоты кадров : Постоянный
    Частота кадров : 60,000 кадров/сек
    Стандарт вещания : PAL
    Цветовое пространство : YUV
    Субдискретизация насыщенности : 4:2:0
    Битовая глубина : 8 бит
    Тип развёртки : Прогрессивная
    Бит/(Пиксели*Кадры) : 0.168
    Размер потока : 516 Мбайт (91%)
    Заголовок : www.60-fps.org
    Язык : English
    Default : Да
    Forced : Нет
    Основные цвета : BT.709
    Характеристики трансфера : BT.709
    Коэффициенты матрицы : BT.709
    colour_range : Limited
    Аудио
    Идентификатор : 2
    Формат : DTS
    Формат/Информация : Digital Theater Systems
    Режим : 16
    Параметр Endianness формата : Big
    Идентификатор кодека : A_DTS
    Продолжительность : 3 м. 41 с.
    Вид битрейта : Постоянный
    Битрейт : 1413 Кбит/сек
    Каналы : 2 канала
    Расположение каналов : Front: L R
    Частота : 48,0 КГц
    Битовая глубина : 16 бит
    Метод сжатия : С потерями
    Задержка видео : 80 мс.
    Размер потока : 37,3 Мбайт (7%)
    Заголовок : DTS
    Язык : English
    Default : Да
    Forced : Нет
    DURATION : 00:03:41.408000000
    NUMBER_OF_FRAMES : 20757
    NUMBER_OF_BYTES : 39106188
    _STATISTICS_WRITING_APP : mkvmerge v7.6.0 ('Garden of Dreams') 32bit built on Feb 8 2015 12:51:39
    _STATISTICS_WRITING_DATE_UTC : 2016-06-01 18:30:32
    _STATISTICS_TAGS : BPS DURATION NUMBER_OF_FRAMES NUMBER_OF_BYTES

    Release was prepared by 60 - fps

  2. Longevity:
    5 years 4 months
    Posts:
    97
    Gender:
    Unknown
    Такое чувство что это Русская Леди ГАГА ))))
    01-Jun-2016 22:23 (after 45 minutes)
  3. Longevity:
    5 years 11 months
    Posts:
    2419
    Gender:
    Male
    5945Такое чувство что это Русская Леди ГАГА ))))
    Украинская вроде как
    Смеюсь
    01-Jun-2016 22:33 (after 9 minutes)
  4. Longevity:
    3 years 10 months
    Posts:
    110
    Gender:
    Male
    А будут ещё клипы Оли Поляковой?
    14-Feb-2019 19:29 (after 2 years 8 months)
  5. Longevity:
    4 years
    Posts:
    1508
    Gender:
    Male
    10599А будут ещё клипы Оли Поляковой?
    Скорее всего нет,так я пока один всё делаю и соответственно просто не успеваю делать что то кроме новинок или просто фильмов... !
    15-Feb-2019 23:01 (after 1 day 3 hours)


You cannot post new topics in this forum
You cannot reply to topics in this forum
You cannot edit your posts in this forum
You cannot delete your posts in this forum
You cannot vote in polls in this forum
You cannot attach files in this forum
You cannot download files in this forum