Rammstein (БЕЗ ЦЕНЗУРЫ)| WEBRip 1080p | 60 fps Britney Spears - Oops! I Did It Again Uncut (2009) HD 1080p | 60 fps BLACKPINK | WEBRip 1080p | 60 fps Britney Spears - Toxic (2004) HDTVRip 1080p | 60 fps Britney Spears - ...Baby One More Time (2009) Full HD 1080p | 60 fps Fergie - M.I.L.F. $ (2016) Full HD 1080p | 60 fps Lady Gaga - Poker Face (2009) Full HD 1080p | 60 fps Jennifer Lopez ft. Iggy Azalea - Booty (2014) Full HD 1080p | 60 fps
  1. Longevity:
    6 years
    Posts:
    2419
    Gender:
    Male
    --Ольга Орлова - Птица (2015) WEBRip 1080p | 60 fps
    --Информация о Клипе
    Исполнитель: Ольга Орлова
    Название: Птица
    Год выхода: 2015
    Продолжительность: 00:02:56
    О клипе:
    Ольга Орлова вернулась в шоу-бизнес с видеоклипом на песню «Птица».
    Многие поклонники решили, что композиция посвящена Жанне Фриске. Однако Ольга развеяла слухи в своем Инстаграм, сообщив, что работает над следующим видеоклипом, в котором выразит свои чувства к рано ушедшей подруге.
    Видео «Птица» было снято в солнечном Крыму. Фанаты остались в восторге от трогательного лирического клипа.
    -Файл
    Кодек: MPEG4/ISO/AVC/ H.264
    Формат: MKV
    Качество: WEBRip 1080p
    Видео: 1920 x 1080 (1.778) at 60.000 fps 6.0 Мбит/сек
    Аудио: MP3 | 320 Кбит/сек | 44.1 KHz | 2 channels

    MI

    Видео
    Идентификатор : 1
    Формат : AVC
    Формат/Информация : Advanced Video Codec
    Профиль формата : High@L4.2
    Параметр CABAC формата : Да
    Параметр ReFrames формата : 3 кадра
    Идентификатор кодека : V_MPEG4/ISO/AVC
    Продолжительность : 2 м. 56 с.
    Вид битрейта : Переменный
    Битрейт : 5875 Кбит/сек
    Максимальный битрейт : 6000 Кбит/сек
    Ширина : 1920 пикселей
    Высота : 1080 пикселей
    Соотношение сторон : 16:9
    Режим частоты кадров : Постоянный
    Частота кадров : 60,000 кадров/сек
    Стандарт вещания : PAL
    Цветовое пространство : YUV
    Субдискретизация насыщенности : 4:2:0
    Битовая глубина : 8 бит
    Тип развёртки : Прогрессивная
    Бит/(Пиксели*Кадры) : 0.047
    Размер потока : 124 Мбайт (93%)
    Заголовок : www.60-fps.org
    Язык : English
    Default : Да
    Forced : Нет
    Основные цвета : BT.709
    Характеристики трансфера : BT.709
    Коэффициенты матрицы : BT.709
    colour_range : Limited
    Аудио
    Идентификатор : 2
    Формат : MPEG Audio
    Версия формата : Version 1
    Профиль формата : Layer 3
    Режим : Joint stereo
    Расширение режима : MS Stereo
    Идентификатор кодека : A_MPEG/L3
    Идентификатор кодека/Подсказка : MP3
    Продолжительность : 2 м. 56 с.
    Вид битрейта : Постоянный
    Битрейт : 320 Кбит/сек
    Каналы : 2 канала
    Частота : 44,1 КГц
    Метод сжатия : С потерями
    Размер потока : 6,75 Мбайт (5%)
    Заголовок : MP3
    Библиотека кодирования : LAME3.99.5
    Default : Да
    Forced : Нет

    Release was prepared by 60 - fps



You cannot post new topics in this forum
You cannot reply to topics in this forum
You cannot edit your posts in this forum
You cannot delete your posts in this forum
You cannot vote in polls in this forum
You cannot attach files in this forum
You cannot download files in this forum