Топ Топиков за 24 часа
 
Luis Fonsi - Despacito ft. Daddy Yankee (2017) WEBRip 1080p | 60 fps Jennifer Lopez feat. Gente de Zona - Ni Tu Ni Yo (2017) WEBRip 1080p | 60 fps Iggy Azalea - Mo Bounce (2017) Full HD 1080p | 60 fps Katy Perry - Dark Horse (2014) Full HD 1080p | 60 fps DJ Khaled feat. Rihanna & Bryson Tiller - Wild Thoughts (2017) Full HD 1080p | 60 fps Inna - Gimme Gimme (2017) Full HD 1080p | 60 fps Loboda - Твои Глаза (2016) WEBRip 1080p | 60 fps Rihanna - Needed Me (2016) Full HD 1080p | 60 fps Spice Girls - Wannabe (1996) Full HD 1080p | 60 fps Jennifer Lopez - I'm Into You ft. Lil Wayne (2011) Full HD 1080p | 60 fps Serebro - Мама Люба давай (2011) Full HD 1080p | 60 fps Miley Cyrus - Wrecking Ball (2014) Full HD 1080p | 60 fps
  1. Стаж:
    3 года 1 месяц
    Сообщений:
    2082
    Пол:
    Мужской
     
    -Оксана Почепа ft Djaspro - Счастье есть (2013) Full HD 1080p | 60 fps- Информация о Клипе
    Исполнитель: Оксана Почепа ft Djaspro
    Название: Счастье есть
    Год выхода: 2013
    Продолжительность: 00:03:49-Файл
    Кодек: MPEG4/ISO/AVC/ H.264
    Формат: MKV
    Качество: MasterRip 1080p
    Видео: 1920 x 812 (2.365) at 60.000 fps 20.0 Мбит/сек
    Аудио: AC-3 | 384 Кбит/сек | 48.0 KHz | 2 channels

    MI

    Видео
    Идентификатор : 1
    Формат : AVC
    Формат/Информация : Advanced Video Codec
    Профиль формата : High@L4.1
    Параметр CABAC формата : Да
    Параметр ReFrames формата : 5 кадров
    Идентификатор кодека : V_MPEG4/ISO/AVC
    Продолжительность : 3 м. 48 с.
    Битрейт : 20,0 Мбит/сек
    Ширина : 1920 пикселей
    Высота : 812 пикселей
    Соотношение сторон : 2,35:1
    Режим частоты кадров : Постоянный
    Частота кадров : 60,000 кадров/сек
    Цветовое пространство : YUV
    Субдискретизация насыщенности : 4:2:0
    Битовая глубина : 8 бит
    Тип развёртки : Прогрессивная
    Бит/(Пиксели*Кадры) : 0.214
    Размер потока : 534 Мбайт (96%)
    Заголовок : www.60-fps.org
    Библиотека кодирования : x264 core 129 r2245 bc13772
    Настройки программы : cabac=1 / ref=5 / deblock=1:-1:-1 / analyse=0x3:0x133 / me=esa / subme=9 / psy=1 / psy_rd=1.00:0.25 / mixed_ref=1 / me_range=32 / chroma_me=1 / trellis=2 / 8x8dct=1 / cqm=0 / deadzone=6,6 / fast_pskip=1 / chroma_qp_offset=-4 / threads=12 / lookahead_threads=2 / sliced_threads=0 / nr=0 / decimate=0 / interlaced=0 / bluray_compat=0 / constrained_intra=0 / bframes=4 / b_pyramid=2 / b_adapt=2 / b_bias=0 / direct=3 / weightb=1 / open_gop=0 / weightp=2 / keyint=600 / keyint_min=60 / scenecut=40 / intra_refresh=0 / rc_lookahead=60 / rc=2pass / mbtree=1 / bitrate=19999 / ratetol=1.0 / qcomp=0.80 / qpmin=0 / qpmax=69 / qpstep=4 / cplxblur=20.0 / qblur=0.5 / ip_ratio=1.50 / aq=1:1.00
    Default : Да
    Forced : Нет
    Аудио
    Идентификатор : 2
    Формат : AC-3
    Формат/Информация : Audio Coding 3
    Расширение режима : CM (complete main)
    Параметр Endianness формата : Big
    Идентификатор кодека : A_AC3
    Продолжительность : 3 м. 48 с.
    Вид битрейта : Постоянный
    Битрейт : 384 Кбит/сек
    Каналы : 2 канала
    Расположение каналов : Front: L R
    Частота : 48,0 КГц
    Битовая глубина : 16 бит
    Метод сжатия : С потерями
    Задержка видео : 75 мс.
    Размер потока : 10,5 Мбайт (2%)
    Заголовок : www.60-fps.org
    Default : Да
    Forced : Нет
    DURATION : 00:03:48.736000000
    NUMBER_OF_FRAMES : 7149
    NUMBER_OF_BYTES : 10980864
    _STATISTICS_WRITING_APP : mkvmerge v7.6.0 ('Garden of Dreams') 32bit built on Feb 8 2015 12:51:39
    _STATISTICS_WRITING_DATE_UTC : 2015-05-12 15:09:38
    _STATISTICS_TAGS : BPS DURATION NUMBER_OF_FRAMES NUMBER_OF_BYTES

    Релиз подготовлен 60 - fps



Вы не можете начинать темы
Вы не можете отвечать на сообщения
Вы не можете редактировать свои сообщения
Вы не можете удалять свои сообщения
Вы не можете голосовать в опросах
Вы не можете прикреплять файлы к сообщениям
Вы не можете скачивать файлы