[Цитировать]
Kryl

«All be repeat! On third trouble...»- Информация
Название: Охотники за привидениями
Оригинальное название: Ghostbusters
Год выхода: 2016
Жанр: Фантастика, фэнтези, боевик, комедия
Режиссер: Пол Фиг
Сценарий: Кэти Дипполд, Пол Фиг, Айвен Райтман
Продюсер: Эми Паскаль, Айвен Райтман, Дэн Эйкройд
В ролях: Мелисса МакКарти, Кристен Уиг, Кейт МакКиннон, Лесли Джонс, Крис Хемсворт, Сесили Стронг, Энди Гарсиа, Нил Кэйси, Чарльз Дэнс, Майкл Кеннет Уильямс
--Сюжет:
Тридцать лет назад охотники за привидениями спасли Нью-Йорк от нашествия призраков, но теперь городу вновь угрожает опасность. Былые герои не могут стать на его защиту, но находятся и другие отважные люди, всю свою жизнь посвятившие изучению паранормальных явлений. Эбби Йейтс объединяется с Эрин Гилберт, пожалуй лучшим специалистом в квантовой физике, и вместе они собирают команду новых охотников за привидениями, в которую принимают отличного инженера Джиллиан Хольцман, сотрудницу метрополитена Пэтти Толан, знающую город как свои пять пальцев, и секретаря — настоящего красавчика Кэвина. Вместе они начинают борьбу с нечистой силой, терроризирующей мегаполис…- Страна: США, Австралия
Продолжительность: 01:56:34

Файл
Кодек: MPEG4/ISO/AVC/H.264
Формат: MKV
Качество: BDRip 720p | 60 fps
Видео: 1280 x 534 (2.397) | 59.940 fps | 8.0 Мбит/сек
Аудио 1: AC3 | 5.1 | 48 kHz | 384 kbps | 16 bit | Дубляж - iTunes |
Аудио 2: AC3 | 5.1 | 48 kHz | 448 kbps | 16 bit | ENG |
Субтитры: Русские, Eng

MedifInfo

Видео
Идентификатор : 1
Формат : AVC
Формат/Информация : Advanced Video Codec
Профиль формата : High@L4.1
Параметр CABAC формата : Да
Параметр ReFrames формата : 3 кадра
Параметр GOP формата : M=3, N=72
Идентификатор кодека : V_MPEG4/ISO/AVC
Продолжительность : 1 ч. 56 м.
Вид битрейта : Переменный
Битрейт : 7630 Кбит/сек
Максимальный битрейт : 8000 Кбит/сек
Ширина : 1280 пикселей
Высота : 534 пикселя
Соотношение сторон : 2,40:1
Режим частоты кадров : Постоянный
Частота кадров : 59,880 кадров/сек
Частота кадров в оригинале : 59,940 кадров/сек
Стандарт вещания : PAL
Цветовое пространство : YUV
Субдискретизация насыщенности : 4:2:0
Битовая глубина : 8 бит
Тип развёртки : Прогрессивная
Бит/(Пиксели*Кадры) : 0.186
Размер потока : 6,21 Гбайт (88%)
Заголовок : www.60-fps.org
Язык : English
Default : Да
Forced : Нет
Основные цвета : BT.601 NTSC
Характеристики трансфера : BT.601
Коэффициенты матрицы : BT.601
colour_range : Limited
Аудио #1
Идентификатор : 2
Формат : AC-3
Формат/Информация : Audio Coding 3
Расширение режима : CM (complete main)
Параметр Endianness формата : Big
Идентификатор кодека : A_AC3
Продолжительность : 1 ч. 56 м.
Вид битрейта : Постоянный
Битрейт : 384 Кбит/сек
Каналы : 6 каналов
Расположение каналов : Front: L C R, Side: L R, LFE
Частота : 48,0 КГц
Битовая глубина : 16 бит
Метод сжатия : С потерями
Размер потока : 320 Мбайт (4%)
Заголовок : Дубляж - iTunes
Язык : Russian
Default : Да
Forced : Да
Аудио #2
Идентификатор : 3
Формат : AC-3
Формат/Информация : Audio Coding 3
Расширение режима : CM (complete main)
Параметр Endianness формата : Big
Идентификатор кодека : A_AC3
Продолжительность : 1 ч. 56 м.
Вид битрейта : Постоянный
Битрейт : 448 Кбит/сек
Каналы : 6 каналов
Расположение каналов : Front: L C R, Side: L R, LFE
Частота : 48,0 КГц
Битовая глубина : 16 бит
Метод сжатия : С потерями
Размер потока : 374 Мбайт (5%)
Заголовок : Eng
Default : Нет
Forced : Нет
Текст #1
Идентификатор : 4
Формат : UTF-8
Идентификатор кодека : S_TEXT/UTF8
Идентификатор кодека/Информация : UTF-8 Plain Text
Язык : Russian
Default : Нет
Forced : Нет
Текст #2
Идентификатор : 5
Формат : UTF-8
Идентификатор кодека : S_TEXT/UTF8
Идентификатор кодека/Информация : UTF-8 Plain Text
Язык : English
Default : Нет
Forced : Нет
Меню
00:00:00.000 : en:
00:08:24.295 : en:
00:15:21.754 : en:
00:19:59.240 : en:
00:25:27.901 : en:
00:33:55.950 : en:
00:39:04.133 : en:
00:45:24.305 : en:
00:51:51.108 : en:
00:56:33.348 : en:
01:01:52.417 : en:
01:07:04.103 : en:
01:15:43.288 : en:
01:23:30.338 : en:
01:32:41.639 : en:
01:42:49.580 : en:

Релиз подготовлен 60 - fps

[60-fps.org].t2295.torrent
Торрент: Зарегистрирован [ 2016-10-21 21:37 ] · 010D5BDB215950F0AFE755A107A683B5DFE0A2F9

Скачать .torrent

Скачать

36 KB

Статус: проверено
Скачан: 59 раз
Поблагодарили:
Размер: 7,03 GB
 
Похожие Темы

[Цитировать]
georg

Уважаемый Kryl, подскажите, есть ли смысл ожидать Охотники за привидениями, Крутые меры и Налетчики в разрешении 1080р?
Заранее спасибо.
Георгий.

[Цитировать]
Kryl

6536Уважаемый Kryl, подскажите, есть ли смысл ожидать Охотники за привидениями, Крутые меры и Налетчики в разрешении 1080р?
Заранее спасибо.
Георгий.
Неее , от меня не будет Грущу

Топик был перенесен из форума Новинки Кино 60 FPS в форум Зарубежные фильмы 60 FPS
Kryl
 
Показать сообщения:    

Текущее время: 28-Фев 12:59

Часовой пояс: UTC + 3


Вы не можете начинать темы
Вы не можете отвечать на сообщения
Вы не можете редактировать свои сообщения
Вы не можете удалять свои сообщения
Вы не можете голосовать в опросах
Вы не можете прикреплять файлы к сообщениям
Вы можете скачивать файлы