1. Longevity:
    7 years
    Posts:
    2413
    Gender:
    Male
    «Нельзя победить того, кто не сдался»- Информация
    Название: Охотник с Уолл-Стрит
    Оригинальное название: The Headhunter's Calling / A Family Man
    Год выхода: 2016
    Жанр: Драма
    Режиссер: Марк Уильямс
    Сценарий: Билл Дюбюк
    Продюсер: Джерард Батлер, Николя Картье, Крэйг Дж. Флорес
    В ролях: Элисон Бри, Джерард Батлер, Уиллем Дефо, Гретхен Мол, Дастин Миллиган, Альфред Молина, Кэтлин Манро, Джулия Баттерз, Анупам Кхер, Синди Дэй
    --Сюжет:
    Фильм повествует о нелёгких буднях беспринципного "охотника за головами" Дэйна Дженсена (Джерард Батлер), менеджера крупной рекрутинговой компании, чей босс уходит на пенсию и освобождает своё место для молодого и инициативного сотрудника. Получив желаемую должность, Дэйн полностью концетрируется на работе, но получает настоящий удар судьбы - у его десятилетнего сына диагностируют рак. С этого момента его мечта стать владельцем собственной крупной компании уже не кажется достижимой, герой оказывается перед выбором: семья или карьера.
    -Страна: США, Канада
    Продолжительность: 01:45:43

    Файл
    Кодек: MPEG4/ISO/AVC/H.264
    Формат: MKV
    Качество: BDRip 720p | 60 fps
    Видео: 1280 x 534 (2.397) | 60.000 fps | 8.0 Мбит/сек
    Аудио 01: AC3 | 5.1 | 48 kHz | 384 kbps | 16 bit | Дубляж - iTunes |
    Аудио 02: AC3 | 5.1 | 48 kHz | 448 kbps | 16 bit | english |
    Субтитры: english

    MedifInfo

    Видео
    Идентификатор : 1
    Формат : AVC
    Формат/Информация : Advanced Video Codec
    Профиль формата : [email protected]
    Параметр CABAC формата : Да
    Параметр ReFrames формата : 5 кадров
    Идентификатор кодека : V_MPEG4/ISO/AVC
    Продолжительность : 1 ч. 45 м.
    Битрейт : 7999 Кбит/сек
    Ширина : 1280 пикселей
    Высота : 534 пикселя
    Соотношение сторон : 2,40:1
    Режим частоты кадров : Постоянный
    Частота кадров : 60,000 кадров/сек
    Цветовое пространство : YUV
    Субдискретизация насыщенности : 4:2:0
    Битовая глубина : 8 бит
    Тип развёртки : Прогрессивная
    Бит/(Пиксели*Кадры) : 0.195
    Размер потока : 5,77 Гбайт (89%)
    Заголовок : www.60-fps.org
    Библиотека кодирования : x264 core 148 r2744 b97ae06
    Настройки программы : cabac=1 / ref=5 / deblock=1:-3:-3 / analyse=0x3:0x113 / me=umh / subme=8 / psy=1 / psy_rd=1.00:0.25 / mixed_ref=1 / me_range=32 / chroma_me=1 / trellis=1 / 8x8dct=1 / cqm=0 / deadzone=6,6 / fast_pskip=1 / chroma_qp_offset=-4 / threads=12 / lookahead_threads=2 / sliced_threads=0 / nr=0 / decimate=0 / interlaced=0 / bluray_compat=0 / constrained_intra=0 / bframes=3 / b_pyramid=2 / b_adapt=1 / b_bias=0 / direct=3 / weightb=1 / open_gop=0 / weightp=2 / keyint=600 / keyint_min=60 / scenecut=40 / intra_refresh=0 / rc_lookahead=50 / rc=2pass / mbtree=1 / bitrate=7999 / ratetol=1.0 / qcomp=0.80 / qpmin=0 / qpmax=69 / qpstep=4 / cplxblur=20.0 / qblur=0.5 / vbv_maxrate=62500 / vbv_bufsize=78125 / nal_hrd=none / filler=0 / ip_ratio=1.10 / aq=1:0.50
    Default : Да
    Forced : Нет
    Аудио #1
    Идентификатор : 2
    Формат : AC-3
    Формат/Информация : Audio Coding 3
    Расширение режима : CM (complete main)
    Параметр Endianness формата : Big
    Идентификатор кодека : A_AC3
    Продолжительность : 1 ч. 45 м.
    Вид битрейта : Постоянный
    Битрейт : 384 Кбит/сек
    Каналы : 6 каналов
    Расположение каналов : Front: L C R, Side: L R, LFE
    Частота : 48,0 КГц
    Битовая глубина : 16 бит
    Метод сжатия : С потерями
    Размер потока : 290 Мбайт (4%)
    Заголовок : Дубляж - iTunes
    Язык : Russian
    Default : Да
    Forced : Нет
    Аудио #2
    Идентификатор : 3
    Формат : AC-3
    Формат/Информация : Audio Coding 3
    Расширение режима : CM (complete main)
    Параметр Endianness формата : Big
    Идентификатор кодека : A_AC3
    Продолжительность : 1 ч. 45 м.
    Вид битрейта : Постоянный
    Битрейт : 448 Кбит/сек
    Каналы : 6 каналов
    Расположение каналов : Front: L C R, Side: L R, LFE
    Частота : 48,0 КГц
    Битовая глубина : 16 бит
    Метод сжатия : С потерями
    Размер потока : 339 Мбайт (5%)
    Заголовок : english
    Язык : English
    Default : Нет
    Forced : Нет
    Текст
    Идентификатор : 4
    Формат : UTF-8
    Идентификатор кодека : S_TEXT/UTF8
    Идентификатор кодека/Информация : UTF-8 Plain Text
    Заголовок : Full
    Язык : English
    Default : Нет
    Forced : Нет
    Меню
    00:00:00.000 : en:00:00:00.000
    00:08:18.707 : en:00:08:18.707
    00:13:18.923 : en:00:13:18.923
    00:19:31.462 : en:00:19:31.462
    00:24:40.145 : en:00:24:40.145
    00:28:54.107 : en:00:28:54.107
    00:35:41.389 : en:00:35:41.389
    00:39:36.040 : en:00:39:36.040
    00:47:00.067 : en:00:47:00.067
    00:50:57.638 : en:00:50:57.638
    00:56:49.740 : en:00:56:49.740
    01:00:43.849 : en:01:00:43.849
    01:08:58.009 : en:01:08:58.009
    01:16:03.851 : en:01:16:03.851
    01:19:38.440 : en:01:19:38.440
    01:23:16.408 : en:01:23:16.408
    01:26:26.848 : en:01:26:26.848
    01:33:34.943 : en:01:33:34.943
    01:37:02.984 : en:01:37:02.984
    01:39:47.982 : en:01:39:47.982

    Release was prepared by 60-fps.org



You cannot post new topics in this forum
You cannot reply to topics in this forum
You cannot edit your posts in this forum
You cannot delete your posts in this forum
You cannot vote in polls in this forum
You cannot attach files in this forum
You cannot download files in this forum