Агент Ева / Ava (2020) BDRip 1080p | 60 fps Властелин колец: Трилогия / The Lord of the Rings: Trilogy (2001-2003) BDRip-AVC | Extended Cut | 60 fps Пятый элемент / The Fifth Element (1997) BDRip 1080p | 60 fps Форпост / The Outpost (2020) BDRip 1080p | 60 fps Охота / The Hunt (2020) BDRip 1080p | 60 fps Поезд смерти / D-Railed (2018) BDRip 1080p | 60 fps Вивариум / Vivarium (2019) BDRip 720p | 60 fps Ультрафиолет / Ultraviolet (2006) BDRip 1080p | 60 fps
  1. Longevity:
    6 years 4 months
    Posts:
    2414
    Gender:
    Male
    «The hunt is on» Информация
    Название: Охота за «Красным Октябрем»
    Оригинальное название: The Hunt for Red October
    Год выхода: 1990
    Жанр: боевик, триллер, приключения
    Режиссер: Джон МакТирнан
    Сценарий: Ларри Фергусон, Дональд Стюарт, Том Клэнси
    Продюсер: Мэйс Нойфельд, Ларри ДеВээй, Джерри Шерлок
    В ролях: Шон Коннери, Алек Болдуин, Скотт Гленн, Сэм Нилл, Джеймс Эрл Джонс, Джосс Экланд, Ричард Джордан, Питер Фёрт, Тим Карри, Кортни Б. Вэнс, Стеллан Скарсгард, Джеффри Джонс, Тимоти Кархарт, Ларри Фергюсон, Фред Далтон Томпсон, Дэниэл Дэвис, Нед Вон, Энтони Пек, Mark Draxton, Том Фишер, Пит Антико

    Сюжет:
    Новейшая советская атомная подводная лодка «Красный Октябрь» способна нарушить хрупкий стратегический баланс между США и СССР. Ее капитан Рамиус решает передать субмарину в руки американцев.

    Страна: США
    Продолжительность: 02:15:08

    Файл
    Кодек: MPEG4|ISO|AVC|H.264|[email protected]|
    Формат: MKV
    Качество: BDRip 1080p | 60 fps
    Видео: 1920 x 820 (2.341) | 59.940 fps | 24.0 Мбит/сек
    Аудио 01: AC3 | 5.1 | 48 kHz | 640 kbps | 16 bit | Профессиональный, закадровый - CEE |
    Аудио 02: AC3 | 5.1 | 48 kHz | 640 kbps | 16 bit | Профессиональный, закадровый - С.Р.И. |
    Аудио 03: AC3 | 5.1 | 48 kHz | 640 kbps | 16 bit | Авторский, закадровый - Андрей Гаврилов |
    Аудио 04: AC3 | 5.1 | 48 kHz | 640 kbps | 16 bit | English |
    Субтитры: русские, английские

    MedifInfo

    Видео
    Идентификатор : 1
    Формат : AVC
    Формат/Информация : Advanced Video Codec
    Профиль формата : [email protected]
    Параметр CABAC формата : Да
    Параметр ReFrames формата : 5 кадров
    Идентификатор кодека : V_MPEG4/ISO/AVC
    Продолжительность : 2 ч. 15 м.
    Битрейт : 24,0 Мбит/сек
    Ширина : 1920 пикселей
    Высота : 820 пикселей
    Соотношение сторон : 2,35:1
    Режим частоты кадров : Постоянный
    Частота кадров : 59,880 кадров/сек
    Частота кадров в оригинале : 59,940 кадров/сек
    Цветовое пространство : YUV
    Субдискретизация насыщенности : 4:2:0
    Битовая глубина : 8 бит
    Тип развёртки : Прогрессивная
    Бит/(Пиксели*Кадры) : 0.255
    Размер потока : 22,2 Гбайт (88%)
    Заголовок : www.60-fps.org
    Библиотека кодирования : x264 core 148 r2744 b97ae06
    Настройки программы : cabac=1 / ref=5 / deblock=1:-3:-3 / analyse=0x3:0x113 / me=umh / subme=8 / psy=1 / psy_rd=1.00:0.25 / mixed_ref=1 / me_range=32 / chroma_me=1 / trellis=1 / 8x8dct=1 / cqm=0 / deadzone=6,6 / fast_pskip=1 / chroma_qp_offset=-4 / threads=12 / lookahead_threads=2 / sliced_threads=0 / nr=0 / decimate=0 / interlaced=0 / bluray_compat=0 / constrained_intra=0 / bframes=3 / b_pyramid=2 / b_adapt=1 / b_bias=0 / direct=3 / weightb=1 / open_gop=0 / weightp=2 / keyint=599 / keyint_min=59 / scenecut=40 / intra_refresh=0 / rc_lookahead=50 / rc=2pass / mbtree=1 / bitrate=23999 / ratetol=1.0 / qcomp=0.80 / qpmin=0 / qpmax=69 / qpstep=4 / cplxblur=20.0 / qblur=0.5 / vbv_maxrate=62500 / vbv_bufsize=78125 / nal_hrd=none / filler=0 / ip_ratio=1.10 / aq=1:0.50
    Default : Да
    Forced : Нет
    Аудио #1
    Идентификатор : 2
    Формат : AC-3
    Формат/Информация : Audio Coding 3
    Расширение режима : CM (complete main)
    Параметр Endianness формата : Big
    Идентификатор кодека : A_AC3
    Продолжительность : 2 ч. 15 м.
    Вид битрейта : Постоянный
    Битрейт : 640 Кбит/сек
    Каналы : 6 каналов
    Расположение каналов : Front: L C R, Side: L R, LFE
    Частота : 48,0 КГц
    Битовая глубина : 16 бит
    Метод сжатия : С потерями
    Размер потока : 619 Мбайт (2%)
    Заголовок : Профессиональный, многоголосый, закадровый - CEE
    Язык : Russian
    Default : Да
    Forced : Нет
    Аудио #2
    Идентификатор : 3
    Формат : AC-3
    Формат/Информация : Audio Coding 3
    Расширение режима : CM (complete main)
    Параметр Endianness формата : Big
    Идентификатор кодека : A_AC3
    Продолжительность : 2 ч. 15 м.
    Вид битрейта : Постоянный
    Битрейт : 640 Кбит/сек
    Каналы : 6 каналов
    Расположение каналов : Front: L C R, Side: L R, LFE
    Частота : 48,0 КГц
    Битовая глубина : 16 бит
    Метод сжатия : С потерями
    Размер потока : 619 Мбайт (2%)
    Заголовок : Профессиональный, многоголосый, закадровый - С.Р.И.
    Язык : Russian
    Default : Нет
    Forced : Нет
    Аудио #3
    Идентификатор : 4
    Формат : AC-3
    Формат/Информация : Audio Coding 3
    Расширение режима : CM (complete main)
    Параметр Endianness формата : Big
    Идентификатор кодека : A_AC3
    Продолжительность : 2 ч. 15 м.
    Вид битрейта : Постоянный
    Битрейт : 640 Кбит/сек
    Каналы : 6 каналов
    Расположение каналов : Front: L C R, Side: L R, LFE
    Частота : 48,0 КГц
    Битовая глубина : 16 бит
    Метод сжатия : С потерями
    Размер потока : 619 Мбайт (2%)
    Заголовок : Авторский, одноголосый, закадровый - Андрей Гаврилов
    Язык : Russian
    Default : Нет
    Forced : Нет
    Аудио #4
    Идентификатор : 5
    Формат : AC-3
    Формат/Информация : Audio Coding 3
    Расширение режима : CM (complete main)
    Параметр Endianness формата : Big
    Идентификатор кодека : A_AC3
    Продолжительность : 2 ч. 15 м.
    Вид битрейта : Постоянный
    Битрейт : 640 Кбит/сек
    Каналы : 6 каналов
    Расположение каналов : Front: L C R, Side: L R, LFE
    Частота : 48,0 КГц
    Битовая глубина : 16 бит
    Метод сжатия : С потерями
    Размер потока : 619 Мбайт (2%)
    Заголовок : English
    Язык : English
    Default : Нет
    Forced : Нет
    Текст #1
    Идентификатор : 6
    Формат : UTF-8
    Идентификатор кодека : S_TEXT/UTF8
    Идентификатор кодека/Информация : UTF-8 Plain Text
    Язык : Russian
    Default : Нет
    Forced : Нет
    Текст #2
    Идентификатор : 7
    Формат : UTF-8
    Идентификатор кодека : S_TEXT/UTF8
    Идентификатор кодека/Информация : UTF-8 Plain Text
    Язык : English
    Default : Нет
    Forced : Нет
    Меню
    00:00:00.000 : en:00:00:00.000
    00:13:12.959 : en:00:13:12.959
    00:19:35.758 : en:00:19:35.758
    00:33:26.504 : en:00:33:26.504
    00:43:06.417 : en:00:43:06.417
    00:51:47.062 : en:00:51:47.062
    01:05:25.547 : en:01:05:25.547
    01:11:14.979 : en:01:11:14.979
    01:25:03.807 : en:01:25:03.807
    01:36:51.931 : en:01:36:51.931
    01:47:51.757 : en:01:47:51.757
    01:55:18.745 : en:01:55:18.745
    02:07:59.714 : en:02:07:59.714
    По заказу пользователя evgen2238

    Release was prepared by 60-fps.org

  2. Longevity:
    4 years 4 months
    Posts:
    110
    Gender:
    Male
    720p будет?
    20-Oct-2017 19:15 (after 5 hours)


You cannot post new topics in this forum
You cannot reply to topics in this forum
You cannot edit your posts in this forum
You cannot delete your posts in this forum
You cannot vote in polls in this forum
You cannot attach files in this forum
You cannot download files in this forum