1. Longevity:
    4 years 1 month
    Posts:
    165
    Gender:
    Male
    Заказать фильмы, клипы или любое другое видео в качестве 60fps может каждый!!!
    Стоимость одного видео 50руб. !!!
    Пишите Талямба в личку, всё обсудите...
    Охана: В поисках сокровища / Finding Ohana (2021) WEB-DL 1080p | 60 fps Информация
    Название: Охана: В поисках сокровища
    Оригинальное название: Finding Ohana
    Год выхода: 2021
    Жанр: Боевик, комедия, приключения, семейный
    Режиссер: Джуд Вэн
    В ролях: Ке Хюи Куан, Келли Ху, Крис Парнелл, Оуэн Ваккаро, Марк Ивэн Джексон, Брэнском Ричмонд, Рики Гарсиа, Райан Хига, Икс Майо, Кайндра Санчес
    Страна: США
    Продолжительность: 2 ч. 00 м. 10 с.
    -- Сюжет:
    Фильм рассказывает о брате и сестре из Бруклина, чье лето в сельском городке Оаху принимает захватывающий оборот, когда дневник, указывающий на давно потерянные сокровища, отправляет их в приключение, заставляя воссоединиться со своим Гавайским наследием. -- Файл
    Кодек: V_MPEG4/ISO/AVC
    Формат: MKV
    Качество: WEB-DL 1080p | 60 fps
    Видео: 1920 x 1080 (16:9) | 59.940 fps | 14.3 Мбит/сек
    Аудио 1: 48 kHz, E-AC3, 5.1, 640 Kbps | Netflix |
    Аудио 2: 48 kHz, AC3, 5.1, 640 Kbps | Netflix |
    Аудио 3: 48 kHz, E-AC3+atmos, 5.1, 768 Kbps | Оригинал |

    MedifInfo

    Общее
    Уникальный идентификатор : 232791605889125174244001648663075451378 (0xAF22084F315990F9B49E33B4AA0771F2)
    Полное имя : D:\Movie\Охана_В поисках сокровища.2021.WEB.DL.1080p.60fps.mkv
    Формат : Matroska
    Версия формата : Version 2
    Размер файла : 14,3 Гбайт
    Продолжительность : 2 ч. 3 м.
    Общий поток : 16,7 Мбит/сек
    Название фильма : Охана: В поисках сокровища (2021) https://60-fps.org/
    Дата кодирования : UTC 2021-02-20 14:02:11
    Программа кодирования : mkvmerge v5.8.0 ('No Sleep / Pillow') built on Sep 2 2012 15:37:04
    Библиотека кодирования : libebml v1.2.3 + libmatroska v1.3.0
    Attachments : Poster.jpg
    Видео
    Идентификатор : 1
    Формат : AVC
    Формат/Информация : Advanced Video Codec
    Профиль формата : [email protected]
    Параметр CABAC формата : Да
    Параметр ReFrames формата : 4 кадра
    Режим смешивания : Header stripping
    Идентификатор кодека : V_MPEG4/ISO/AVC
    Продолжительность : 2 ч. 3 м.
    Битрейт : 14,3 Мбит/сек
    Номинальный битрейт : 15,0 Мбит/сек
    Ширина : 1920 пикселей
    Высота : 1080 пикселей
    Соотношение сторон : 16:9
    Режим частоты кадров : Постоянный
    Частота кадров : 60,000 кадров/сек
    Цветовое пространство : YUV
    Субдискретизация насыщенности : 4:2:0
    Битовая глубина : 8 бит
    Тип развёртки : Прогрессивная
    Бит/(Пиксели*Кадры) : 0.115
    Размер потока : 12,3 Гбайт (86%)
    Библиотека кодирования : x264 core 146 r2538 121396c
    Настройки программы : cabac=1 / ref=4 / deblock=1:0:0 / analyse=0x3:0x113 / me=umh / subme=8 / psy=1 / psy_rd=1.00:0.25 / mixed_ref=1 / me_range=16 / chroma_me=1 / trellis=1 / 8x8dct=1 / cqm=0 / deadzone=6,6 / fast_pskip=1 / chroma_qp_offset=-4 / threads=12 / lookahead_threads=3 / sliced_threads=0 / nr=0 / decimate=0 / interlaced=0 / bluray_compat=0 / constrained_intra=0 / bframes=3 / b_pyramid=2 / b_adapt=2 / b_bias=0 / direct=3 / weightb=1 / open_gop=0 / weightp=2 / keyint=600 / keyint_min=60 / scenecut=40 / intra_refresh=0 / rc_lookahead=50 / rc=2pass / mbtree=1 / bitrate=15000 / ratetol=1.0 / qcomp=0.80 / qpmin=0 / qpmax=69 / qpstep=4 / cplxblur=20.0 / qblur=0.5 / vbv_maxrate=50000 / vbv_bufsize=50000 / nal_hrd=none / filler=0 / ip_ratio=1.10 / aq=1:0.50
    Язык : English
    Default : Да
    Forced : Нет
    Аудио #1
    Идентификатор : 2
    Формат : E-AC-3
    Формат/Информация : Enhanced Audio Coding 3
    Параметр Endianness формата : Big
    Режим смешивания : Header stripping
    Идентификатор кодека : A_EAC3
    Продолжительность : 2 ч. 3 м.
    Вид битрейта : Постоянный
    Битрейт : 640 Кбит/сек
    Каналы : 6 каналов
    Расположение каналов : Front: L C R, Side: L R, LFE
    Частота : 48,0 КГц
    Частота кадров : 187,500 кадров/сек (256 spf)
    Метод сжатия : С потерями
    Размер потока : 564 Мбайт (4%)
    Заголовок : Netflix
    Язык : Russian
    Default : Да
    Forced : Да
    Statistics Tags Issue : mkvmerge v53.0.0 ('Fool's Gold') 64-bit 2021-02-18 13:24:49 / mkvmerge v5.8.0 ('No Sleep / Pillow') built on Sep 2 2012 15:37:04 2021-02-20 14:02:11
    FromStats_BitRate : 640000
    FromStats_Duration : 02:03:09.344000000
    FromStats_FrameCount : 230917
    FromStats_StreamSize : 591147520
    Аудио #2
    Идентификатор : 3
    Формат : AC-3
    Формат/Информация : Audio Coding 3
    Расширение режима : CM (complete main)
    Параметр Endianness формата : Big
    Режим смешивания : Header stripping
    Идентификатор кодека : A_AC3
    Продолжительность : 2 ч. 3 м.
    Вид битрейта : Постоянный
    Битрейт : 640 Кбит/сек
    Каналы : 6 каналов
    Расположение каналов : Front: L C R, Side: L R, LFE
    Частота : 48,0 КГц
    Частота кадров : 31,250 кадров/сек (1536 spf)
    Битовая глубина : 16 бит
    Метод сжатия : С потерями
    Размер потока : 564 Мбайт (4%)
    Заголовок : Netflix
    Язык : Russian
    Default : Нет
    Forced : Нет
    Statistics Tags Issue : mkvmerge v53.0.0 ('Fool's Gold') 64-bit 2021-02-18 13:24:49 / mkvmerge v5.8.0 ('No Sleep / Pillow') built on Sep 2 2012 15:37:04 2021-02-20 14:02:11
    FromStats_BitRate : 640000
    FromStats_Duration : 02:03:09.344000000
    FromStats_FrameCount : 230917
    FromStats_StreamSize : 591147520
    Аудио #3
    Идентификатор : 4
    Формат : E-AC-3
    Формат/Информация : Enhanced Audio Coding 3
    Параметр Endianness формата : Big
    Режим смешивания : Header stripping
    Идентификатор кодека : A_EAC3
    Продолжительность : 2 ч. 3 м.
    Вид битрейта : Постоянный
    Битрейт : 768 Кбит/сек
    Каналы : 6 каналов
    Расположение каналов : Front: L C R, Side: L R, LFE
    Частота : 48,0 КГц
    Частота кадров : 187,500 кадров/сек (256 spf)
    Метод сжатия : С потерями
    Размер потока : 677 Мбайт (5%)
    Заголовок : English
    Язык : English
    Default : Нет
    Forced : Нет
    Statistics Tags Issue : mkvmerge v53.0.0 ('Fool's Gold') 64-bit 2021-02-18 13:24:49 / mkvmerge v5.8.0 ('No Sleep / Pillow') built on Sep 2 2012 15:37:04 2021-02-20 14:02:11
    FromStats_BitRate : 768000
    FromStats_Duration : 02:03:09.248000000
    FromStats_FrameCount : 230914
    FromStats_StreamSize : 709367808
    Текст #1
    Идентификатор : 5
    Формат : UTF-8
    Идентификатор кодека : S_TEXT/UTF8
    Идентификатор кодека/Информация : UTF-8 Plain Text
    Заголовок : Forced
    Язык : Russian
    Default : Да
    Forced : Да
    Statistics Tags Issue : mkvmerge v53.0.0 ('Fool's Gold') 64-bit 2021-02-18 13:24:49 / mkvmerge v5.8.0 ('No Sleep / Pillow') built on Sep 2 2012 15:37:04 2021-02-20 14:02:11
    FromStats_BitRate : 3
    FromStats_Duration : 01:59:22.083000000
    FromStats_FrameCount : 41
    FromStats_StreamSize : 2977
    Текст #2
    Идентификатор : 6
    Формат : UTF-8
    Идентификатор кодека : S_TEXT/UTF8
    Идентификатор кодека/Информация : UTF-8 Plain Text
    Заголовок : Full
    Язык : Russian
    Default : Нет
    Forced : Нет
    Statistics Tags Issue : mkvmerge v53.0.0 ('Fool's Gold') 64-bit 2021-02-18 13:24:49 / mkvmerge v5.8.0 ('No Sleep / Pillow') built on Sep 2 2012 15:37:04 2021-02-20 14:02:11
    FromStats_BitRate : 165
    FromStats_Duration : 01:59:42.458000000
    FromStats_FrameCount : 1565
    FromStats_StreamSize : 148641
    Текст #3
    Идентификатор : 7
    Формат : UTF-8
    Идентификатор кодека : S_TEXT/UTF8
    Идентификатор кодека/Информация : UTF-8 Plain Text
    Заголовок : English [Forced]
    Язык : English
    Default : Нет
    Forced : Нет
    Statistics Tags Issue : mkvmerge v53.0.0 ('Fool's Gold') 64-bit 2021-02-18 13:24:49 / mkvmerge v5.8.0 ('No Sleep / Pillow') built on Sep 2 2012 15:37:04 2021-02-20 14:02:11
    FromStats_BitRate : 0
    FromStats_Duration : 01:44:11.875000000
    FromStats_FrameCount : 24
    FromStats_StreamSize : 551
    Текст #4
    Идентификатор : 8
    Формат : UTF-8
    Идентификатор кодека : S_TEXT/UTF8
    Идентификатор кодека/Информация : UTF-8 Plain Text
    Заголовок : English [SDH]
    Язык : English
    Default : Нет
    Forced : Нет
    Statistics Tags Issue : mkvmerge v53.0.0 ('Fool's Gold') 64-bit 2021-02-18 13:24:49 / mkvmerge v5.8.0 ('No Sleep / Pillow') built on Sep 2 2012 15:37:04 2021-02-20 14:02:11
    FromStats_BitRate : 64
    FromStats_Duration : 01:59:48.292000000
    FromStats_FrameCount : 1839
    FromStats_StreamSize : 58000

    Release was prepared by 60-fps.org



You cannot post new topics in this forum
You cannot reply to topics in this forum
You cannot edit your posts in this forum
You cannot delete your posts in this forum
You cannot vote in polls in this forum
You cannot attach files in this forum
You cannot download files in this forum