[Цитировать]
Талямба

Фильм «Легендарное преступление: рассекречено через 30 лет» Фильм- Информация
Название: Ограбление на Бейкер-Стрит
Оригинальное название: The Bank Job
Год выхода: 2008
Жанр: триллер, драма, мелодрама, криминал
Режиссер: Роджер Дональдсон
Сценарий: Дик Клемент, Йен Ла Френас
Продюсер: Стив Чесман, Чарльз Ровен, Дэвид Элпер
В ролях: Джейсон Стэйтем,Саффрон Берроуз,Стивен Кэмпбелл Мур,Дэниэл Мейс,Джеймс Фолкнер,Алки Дэвид,Майкл Джибсон,Джорджия Тейлор,Ричард Линтерн,Питер Боулз
--Сюжет:
Фильм основан на реальных событиях, происходивших в Великобритании в 1971 году. После 35 лет забвения мы наконец узнаем об одном из самых легендарных ограблений банка в истории Великобритании, когда не было произведено ни одного ареста и не было найдено ни малейшего следа похищенных денег.
Налёт на банк на Бейкер Стрит был инициирован высокопоставленными официальными лицами, пытающимися добраться до заветной банковской ячейки, в которой хозяйка одного из известнейших борделей Лондона хранила секретную информацию. Теперь запрет на разглашение информации об этом ограблении снят британским правительством, и перед нами открывается красочная, лихо закрученная история, полная тайн, сюрпризов и неожиданных поворотов.
-- Страна: Великобритания, США, Австралия
Продолжительность: 01:51:39

Файл
Кодек: MPEG4/ISO/AVC H.264/High@L4.1
Формат: MKV
Качество: BDRip 720p | 60 fps
Видео: 1280 x 720 (1.778) | 60,000 fps | 5856 Кбит/сек
Аудио 1: AC3 | 5.1 | 48 kHz | 384 Кбит/сек | 16 bit | Многоголосый закадровый, "MVO [С.Р.И.]"
Субтитры: Russian

MedifInfo

Видео
Идентификатор : 1
Формат : AVC
Формат/Информация : Advanced Video Codec
Профиль формата : High@L4.1
Параметр CABAC формата : Да
Параметр ReFrames формата : 4 кадра
Идентификатор кодека : V_MPEG4/ISO/AVC
Продолжительность : 1 ч. 51 м.
Битрейт : 5856 Кбит/сек
Ширина : 1280 пикселей
Высота : 720 пикселей
Соотношение сторон : 16:9
Режим частоты кадров : Постоянный
Частота кадров : 60,000 кадров/сек
Цветовое пространство : YUV
Субдискретизация насыщенности : 4:2:0
Битовая глубина : 8 бит
Тип развёртки : Прогрессивная
Бит/(Пиксели*Кадры) : 0.106
Размер потока : 4,47 Гбайт (92%)
Заголовок : The Bank Job (2008) BDRip 720p (60 Fps).mkv
Библиотека кодирования : x264 core 130 r2273 b3065e6
Настройки программы : cabac=1 / ref=4 / deblock=1:-3:-3 / analyse=0x3:0x113 / me=umh / subme=8 / psy=1 / psy_rd=1.00:0.00 / mixed_ref=1 / me_range=24 / chroma_me=1 / trellis=2 / 8x8dct=1 / cqm=0 / deadzone=21,11 / fast_pskip=1 / chroma_qp_offset=-2 / threads=3 / lookahead_threads=1 / sliced_threads=0 / nr=0 / decimate=1 / interlaced=0 / bluray_compat=0 / constrained_intra=0 / bframes=4 / b_pyramid=2 / b_adapt=2 / b_bias=0 / direct=3 / weightb=1 / open_gop=0 / weightp=2 / keyint=250 / keyint_min=25 / scenecut=40 / intra_refresh=0 / rc_lookahead=50 / rc=2pass / mbtree=1 / bitrate=5856 / ratetol=1.0 / qcomp=0.60 / qpmin=0 / qpmax=69 / qpstep=4 / cplxblur=20.0 / qblur=0.5 / ip_ratio=1.40 / aq=1:1.00
Язык : English
Default : Да
Forced : Нет
Аудио
Идентификатор : 2
Формат : AC-3
Формат/Информация : Audio Coding 3
Расширение режима : CM (complete main)
Параметр Endianness формата : Big
Идентификатор кодека : A_AC3
Продолжительность : 1 ч. 51 м.
Вид битрейта : Постоянный
Битрейт : 384 Кбит/сек
Каналы : 6 каналов
Расположение каналов : Front: L C R, Side: L R, LFE
Частота : 48,0 КГц
Частота кадров : 31,250 кадров/сек (1536 spf)
Битовая глубина : 16 бит
Метод сжатия : С потерями
Размер потока : 307 Мбайт (6%)
Заголовок : MVO [С.Р.И.]
Язык : Russian
Default : Да
Forced : Нет
Текст #1
Идентификатор : 3
Формат : UTF-8
Идентификатор кодека : S_TEXT/UTF8
Идентификатор кодека/Информация : UTF-8 Plain Text
Заголовок : Forced
Язык : Russian
Default : Нет
Forced : Нет
Текст #2
Идентификатор : 4
Формат : UTF-8
Идентификатор кодека : S_TEXT/UTF8
Идентификатор кодека/Информация : UTF-8 Plain Text
Заголовок : Full
Язык : Russian
Default : Нет
Forced : Нет
Меню
00:00:00.000 : :Chapter 01
00:10:56.000 : :Chapter 02
00:18:59.000 : :Chapter 03
00:24:23.000 : :Chapter 04
00:36:19.000 : :Chapter 05
00:45:43.000 : :Chapter 06
00:54:06.000 : :Chapter 07
00:59:48.000 : :Chapter 08
01:05:47.000 : :Chapter 09
01:15:15.000 : :Chapter 10
01:30:43.000 : :Chapter 11
01:45:23.500 : :Chapter 12
 
Показать сообщения:    

Текущее время: 18-Окт 14:09

Часовой пояс: UTC + 3


Вы не можете начинать темы
Вы не можете отвечать на сообщения
Вы не можете редактировать свои сообщения
Вы не можете удалять свои сообщения
Вы не можете голосовать в опросах
Вы не можете прикреплять файлы к сообщениям
Вы не можете скачивать файлы