Стражи Галактики. Часть 2 / Guardians of the Galaxy Vol. 2 (2017) BDRip 1080p | 60 fps Джон Уик 2 / John Wick: Chapter Two (2017) BDRip 720p | 60 fps Форсаж 8 / The Fate of the Furious (2017) BDRip 1080p | 60 fps Призрак в доспехах / Ghost in the Shell (2017) BDRip 1080p | 60 fps Пираты Карибского моря: Мертвецы не рассказывают сказки / Pirates of the Caribbean: Dead Men Tell No Tales (2017) BDRip 1080p | 60 fps Форсаж 8 / The Fate of the Furious (2017) BDRip 720p | 60 fps Меч короля Артура / King Arthur: Legend of the Sword (2017) BDRip 1080p | 60 fps Варкрафт / Warcraft (2016) BDRip 1080p | 60 fps Чужой: Завет / Alien: Covenant (2016) BDRip 720p | 60 fps Конг: Остров черепа / Kong: Skull Island (2017) BDRip 1080p | 60 fps Доктор Стрэндж / Doctor Strange (2016) BDRip 1080p | 60 fps Чудо-женщина / Wonder Woman (2017) BDRip 1080p | 60 fps
  1. Стаж:
    1 год 5 месяцев
    Сообщений:
    340
    Пол:
    Мужской
     
    Фильм «Ты везунчик!» Фильм- Информация
    Название: Однажды в Вегасе
    Оригинальное название: What Happens in Vegas
    Год выхода: 2008
    Жанр: мелодрама, комедия
    Режиссер: Том Вон
    Сценарий: Дэна Фокс
    Продюсер: Майкл Агилар, Шон Леви, Джимми Миллер
    В ролях: Кэмерон Диаз,Эштон Кутчер,Роб Кордри,Лэйк Белл,Джейсон Судейкис,Трит Уильямс,Дирдри О’Коннелл,Мишель Крусик,Деннис Фарина,Зак Галифианакис
    --Сюжет:
    После ночи кутежа в Городе Грехов двое совершенно незнакомых людей просыпаются в одной постели и пытаются восстановить ход событий вечера. Оказывается, они поженились и взяли огромный джек-пот. И вот на свежую голову молодожены (каждый сам про себя) разрабатывают план, как отделаться от своей «второй половины» и получить весь куш. Там, где замешаны деньги, нет места любви. Хотя в Вегасе случается всякое…-- Страна: США
    Продолжительность: 01:40:46

    Файл
    Кодек: MPEG4/ISO/AVC H.264/High@L4.1
    Формат: MKV
    Качество: BDRip 1080p | 60 fps
    Видео: 1920 x 816 (2.353) | 59.940 fps | 10,0 Мбит/сек
    Аудио 1: AC-3| 5.1 | 48 kHz | 448 Кбит/сек | 16 bit | Дубляж
    Аудио 2: AC-3| 5.1 | 48 kHz | 448 Кбит/сек | 16 bit | Оригинал
    Субтитры:

    MedifInfo

    Видео
    Идентификатор : 1
    Формат : AVC
    Формат/Информация : Advanced Video Codec
    Профиль формата : High@L4.1
    Параметр CABAC формата : Да
    Параметр ReFrames формата : 5 кадров
    Идентификатор кодека : V_MPEG4/ISO/AVC
    Продолжительность : 1 ч. 40 м.
    Битрейт : 10000 Кбит/сек
    Ширина : 1920 пикселей
    Высота : 816 пикселей
    Соотношение сторон : 2,35:1
    Режим частоты кадров : Постоянный
    Частота кадров : 59,940 (60000/1001) кадров/сек
    Цветовое пространство : YUV
    Субдискретизация насыщенности : 4:2:0
    Битовая глубина : 8 бит
    Тип развёртки : Прогрессивная
    Бит/(Пиксели*Кадры) : 0.106
    Размер потока : 7,00 Гбайт (92%)
    Заголовок : Талямба: 60-fps.org
    Библиотека кодирования : x264 core 146 r2538 121396c
    Настройки программы : cabac=1 / ref=5 / deblock=1:-3:-3 / analyse=0x3:0x113 / me=umh / subme=8 / psy=1 / psy_rd=1.00:0.25 / mixed_ref=1 / me_range=32 / chroma_me=1 / trellis=1 / 8x8dct=1 / cqm=0 / deadzone=6,6 / fast_pskip=1 / chroma_qp_offset=-4 / threads=12 / lookahead_threads=2 / sliced_threads=0 / nr=0 / decimate=0 / interlaced=0 / bluray_compat=0 / constrained_intra=0 / bframes=3 / b_pyramid=2 / b_adapt=2 / b_bias=0 / direct=3 / weightb=1 / open_gop=0 / weightp=2 / keyint=599 / keyint_min=59 / scenecut=40 / intra_refresh=0 / rc_lookahead=50 / rc=2pass / mbtree=1 / bitrate=10000 / ratetol=1.0 / qcomp=0.80 / qpmin=0 / qpmax=69 / qpstep=4 / cplxblur=20.0 / qblur=0.5 / vbv_maxrate=14000 / vbv_bufsize=14000 / nal_hrd=none / filler=0 / ip_ratio=1.10 / aq=1:0.50
    Язык : English
    Default : Да
    Forced : Нет
    Аудио #1
    Идентификатор : 2
    Формат : AC-3
    Формат/Информация : Audio Coding 3
    Расширение режима : CM (complete main)
    Параметр Endianness формата : Big
    Идентификатор кодека : A_AC3
    Продолжительность : 1 ч. 40 м.
    Вид битрейта : Постоянный
    Битрейт : 448 Кбит/сек
    Каналы : 6 каналов
    Расположение каналов : Front: L C R, Side: L R, LFE
    Частота : 48,0 КГц
    Частота кадров : 31,250 кадров/сек (1536 spf)
    Битовая глубина : 16 бит
    Метод сжатия : С потерями
    Размер потока : 323 Мбайт (4%)
    Заголовок : Дубляж
    Язык : Russian
    Default : Да
    Forced : Нет
    Аудио #2
    Идентификатор : 3
    Формат : AC-3
    Формат/Информация : Audio Coding 3
    Расширение режима : CM (complete main)
    Параметр Endianness формата : Big
    Идентификатор кодека : A_AC3
    Продолжительность : 1 ч. 40 м.
    Вид битрейта : Постоянный
    Битрейт : 448 Кбит/сек
    Каналы : 6 каналов
    Расположение каналов : Front: L C R, Side: L R, LFE
    Частота : 48,0 КГц
    Частота кадров : 31,250 кадров/сек (1536 spf)
    Битовая глубина : 16 бит
    Метод сжатия : С потерями
    Размер потока : 323 Мбайт (4%)
    Заголовок : Оригинал
    Язык : English
    Default : Нет
    Forced : Нет
    Текст #1
    Идентификатор : 4
    Формат : UTF-8
    Идентификатор кодека : S_TEXT/UTF8
    Идентификатор кодека/Информация : UTF-8 Plain Text
    Продолжительность : 1 ч. 39 м.
    Битрейт : 86 бит/сек
    Count of elements : 1314
    Размер потока : 63,2 Кбайт (0%)
    Язык : Russian
    Default : Нет
    Forced : Нет
    Текст #2
    Идентификатор : 5
    Формат : UTF-8
    Идентификатор кодека : S_TEXT/UTF8
    Идентификатор кодека/Информация : UTF-8 Plain Text
    Продолжительность : 1 ч. 40 м.
    Битрейт : 80 бит/сек
    Count of elements : 1598
    Размер потока : 59,4 Кбайт (0%)
    Язык : English
    Default : Нет
    Forced : Нет
    Меню
    00:00:00.000 : en:Main Titles/Opposites
    00:03:16.363 : en:Life of the Party
    00:05:30.872 : en:Big Surprise
    00:07:28.657 : en:"Vegas!"
    00:09:40.288 : en:Reservation Glitch
    00:11:38.323 : en:Watch and Learn
    00:13:15.712 : en:What Happens in Vegas
    00:17:45.022 : en:Disaster Averted
    00:23:01.672 : en:What's Yours is Ours
    00:24:32.888 : en:Six Month Sentence
    00:28:24.161 : en:Day One
    00:31:53.912 : en:Bathroom Blues
    00:35:00.432 : en:Counseling Session
    00:39:30.410 : en:Plan B
    00:48:44.839 : en:Happy Couple
    00:51:48.522 : en:Subterfuge
    00:56:26.425 : en:The In-Laws
    01:01:12.627 : en:Family Picnic
    01:05:49.612 : en:Company Retreat
    01:11:03.301 : en:First Dance
    01:17:23.848 : en:A Great Day
    01:21:53.617 : en:Final Decree
    01:28:53.828 : en:Jackpot
    01:34:40.633 : en:Six Months Earlier/End Titles


Вы не можете начинать темы
Вы не можете отвечать на сообщения
Вы не можете редактировать свои сообщения
Вы не можете удалять свои сообщения
Вы не можете голосовать в опросах
Вы не можете прикреплять файлы к сообщениям
Вы не можете скачивать файлы