[Цитировать]
Kryl

Однажды в Шанхае / Once Upon a Time in Shanghai (2014) BDRip 720p | 60 fps- Информация
Название: Однажды в Шанхае
Оригинальное название: Once Upon a Time in Shanghai
Год выхода: 2014
Жанр: Боевик, криминал
Режиссер: Чин-По Вон
Сценарий: Вон Цзин
Продюсер: Эндрю Лау, Вон Цзин
В ролях: Филип Инг, Саммо Хун, Энди Он, Чен Куан Тай, Мишель Ху, Цзянь Луи Ксиа, Фунг Харк-Он, Мей Лин Мо, Чжунчжи Мао
--Сюжет:
Начало 20-го века. Чжэнь Ма Юн оказывается в рядах людей, надеющихся найти работу в Шанхае. Будучи человеком порядочным, он отказывается стать членом одной из бандитских группировок и находит друга в лице благородного гангстера Ци Луна. Японский шпион Хасимото, возмущённый отказом Ци Луна принять его предложение, пытается убить их обоих…- Страна: Китай, Гонконг
Продолжительность: 01:34:59

Файл
Кодек: MPEG4/ISO/AVC H.264
Формат: MKV
Качество: BDRip 720p | 60 fps
Видео: 1280 x 544 (2.353) | 60.000 fps | 9.0 Мбит/сек
Аудио 1: AC3 | 5.1 | 48 kHz | 640 kbps | 16 bit | Авторский одноголосый - Виктор Рутилов |
Аудио 2: AC3 | 5.1 | 48 kHz | 640 kbps | 16 bit | CHI |

MedifInfo

Видео
Идентификатор : 1
Формат : AVC
Формат/Информация : Advanced Video Codec
Профиль формата : High@L4.1
Параметр CABAC формата : Да
Параметр ReFrames формата : 3 кадра
Идентификатор кодека : V_MPEG4/ISO/AVC
Продолжительность : 1 ч. 34 м.
Вид битрейта : Переменный
Битрейт : 8760 Кбит/сек
Максимальный битрейт : 9000 Кбит/сек
Ширина : 1280 пикселей
Высота : 544 пикселя
Соотношение сторон : 2,35:1
Режим частоты кадров : Постоянный
Частота кадров : 60,000 кадров/сек
Стандарт вещания : PAL
Цветовое пространство : YUV
Субдискретизация насыщенности : 4:2:0
Битовая глубина : 8 бит
Тип развёртки : Прогрессивная
Бит/(Пиксели*Кадры) : 0.210
Размер потока : 5,81 Гбайт (86%)
Заголовок : www.60-fps.org
Язык : English
Default : Да
Forced : Нет
Основные цвета : BT.601 NTSC
Характеристики трансфера : BT.601
Коэффициенты матрицы : BT.601
colour_range : Limited
Аудио #1
Идентификатор : 2
Формат : AC-3
Формат/Информация : Audio Coding 3
Расширение режима : CM (complete main)
Параметр Endianness формата : Big
Идентификатор кодека : A_AC3
Продолжительность : 1 ч. 34 м.
Вид битрейта : Постоянный
Битрейт : 640 Кбит/сек
Каналы : 6 каналов
Расположение каналов : Front: L C R, Side: L R, LFE
Частота : 48,0 КГц
Битовая глубина : 16 бит
Метод сжатия : С потерями
Размер потока : 435 Мбайт (6%)
Заголовок : Авторский одноголосый - Виктор Рутилов
Default : Да
Forced : Да
Аудио #2
Идентификатор : 3
Формат : AC-3
Формат/Информация : Audio Coding 3
Расширение режима : CM (complete main)
Параметр Endianness формата : Big
Идентификатор кодека : A_AC3
Продолжительность : 1 ч. 34 м.
Вид битрейта : Постоянный
Битрейт : 640 Кбит/сек
Каналы : 6 каналов
Расположение каналов : Front: L C R, Side: L R, LFE
Частота : 48,0 КГц
Битовая глубина : 16 бит
Метод сжатия : С потерями
Размер потока : 435 Мбайт (6%)
Заголовок : CHI
Default : Нет
Forced : Нет

Релиз подготовлен 60 - fps

 
Показать сообщения:    

Текущее время: 05-Дек 01:22

Часовой пояс: UTC + 3


Вы не можете начинать темы
Вы не можете отвечать на сообщения
Вы не можете редактировать свои сообщения
Вы не можете удалять свои сообщения
Вы не можете голосовать в опросах
Вы не можете прикреплять файлы к сообщениям
Вы не можете скачивать файлы