Агент Ева / Ava (2020) BDRip 1080p | 60 fps Пятый элемент / The Fifth Element (1997) BDRip 1080p | 60 fps Властелин колец: Трилогия / The Lord of the Rings: Trilogy (2001-2003) BDRip-AVC | Extended Cut | 60 fps Форпост / The Outpost (2020) BDRip 1080p | 60 fps Поезд смерти / D-Railed (2018) BDRip 1080p | 60 fps Вивариум / Vivarium (2019) BDRip 720p | 60 fps Охота / The Hunt (2020) BDRip 1080p | 60 fps Ультрафиолет / Ultraviolet (2006) BDRip 1080p | 60 fps
  1. Longevity:
    6 years 4 months
    Posts:
    2414
    Gender:
    Male
    «Твоё Главное Приключение»- Информация
    Название: Одиссея
    Оригинальное название: L'odyssee
    Год выхода: 2016
    Жанр: Приключения
    Режиссер: Жером Салль
    Сценарий: Жером Салль, Лорен Тернер, Жан-Мишель Кусто
    Продюсер: Оливье Дельбоск, Филипп Годо, Марк Миссонье
    В ролях: Ламбер Вильсон, Пьер Нинэ, Одри Тоту, Лоран Люка, Бенжамин Лаверн, Венсан Энен, Тибо де Монталембер, Рогер Ван Хол, Хлоя Хиршман
    --Сюжет:
    Есть пути, которые не отыщешь на картах. Есть цели, которые укажет только любовь. «Одиссея» — самый масштабный приключенческий проект современного французского кино. История героя, открывшего человечеству «второй космос». Его экспедиции вдохновили миллионы. Его главное путешествие осталось тайной.
    Первопроходец. Мечтатель. Бунтарь. Легендарный Жак-Ив Кусто: его корабль, его открытия, его настоящая Одиссея.
    - Страна: Франция
    Продолжительность: 02:02:55

    Файл
    Кодек: MPEG4/ISO/AVC H.264
    Формат: MKV
    Качество: BDRip 1080p | 60 fps
    Видео: 1920 x 720 (2.667) | 59.940 fps | 20.0 Мбит/сек
    Аудио: AC3 | 5.1 | 48 kHz | 384 kbps | 16 bit | Профессиональный полное дублирование - официальный звук |

    MedifInfo

    Видео
    Идентификатор : 1
    Формат : AVC
    Формат/Информация : Advanced Video Codec
    Профиль формата : [email protected]
    Параметр CABAC формата : Да
    Параметр ReFrames формата : 5 кадров
    Идентификатор кодека : V_MPEG4/ISO/AVC
    Продолжительность : 2 ч. 2 м.
    Битрейт : 20,0 Мбит/сек
    Ширина : 1920 пикселей
    Высота : 720 пикселей
    Соотношение сторон : 2,667
    Режим частоты кадров : Постоянный
    Частота кадров : 59,880 кадров/сек
    Частота кадров в оригинале : 59,940 кадров/сек
    Цветовое пространство : YUV
    Субдискретизация насыщенности : 4:2:0
    Битовая глубина : 8 бит
    Тип развёртки : Прогрессивная
    Бит/(Пиксели*Кадры) : 0.242
    Размер потока : 16,8 Гбайт (96%)
    Заголовок : www.60-fps.org
    Библиотека кодирования : x264 core 148 r2638 7599210
    Настройки программы : cabac=1 / ref=5 / deblock=1:-3:-3 / analyse=0x3:0x113 / me=umh / subme=8 / psy=1 / psy_rd=1.00:0.25 / mixed_ref=1 / me_range=32 / chroma_me=1 / trellis=1 / 8x8dct=1 / cqm=0 / deadzone=6,6 / fast_pskip=1 / chroma_qp_offset=-4 / threads=12 / lookahead_threads=2 / sliced_threads=0 / nr=0 / decimate=0 / interlaced=0 / bluray_compat=0 / constrained_intra=0 / bframes=3 / b_pyramid=2 / b_adapt=2 / b_bias=0 / direct=3 / weightb=1 / open_gop=0 / weightp=2 / keyint=599 / keyint_min=59 / scenecut=40 / intra_refresh=0 / rc_lookahead=50 / rc=2pass / mbtree=1 / bitrate=19999 / ratetol=1.0 / qcomp=0.80 / qpmin=0 / qpmax=69 / qpstep=4 / cplxblur=20.0 / qblur=0.5 / vbv_maxrate=62500 / vbv_bufsize=78125 / nal_hrd=none / filler=0 / ip_ratio=1.10 / aq=1:0.50
    Default : Да
    Forced : Нет
    Аудио
    Идентификатор : 2
    Формат : AC-3
    Формат/Информация : Audio Coding 3
    Расширение режима : CM (complete main)
    Параметр Endianness формата : Big
    Идентификатор кодека : A_AC3
    Продолжительность : 2 ч. 2 м.
    Вид битрейта : Постоянный
    Битрейт : 384 Кбит/сек
    Каналы : 6 каналов
    Расположение каналов : Front: L C R, Side: L R, LFE
    Частота : 48,0 КГц
    Битовая глубина : 16 бит
    Метод сжатия : С потерями
    Размер потока : 338 Мбайт (2%)
    Заголовок : Профессиональный полное дублирование - официальный звук
    Язык : Russian
    Default : Да
    Forced : Нет
    Меню
    00:00:00.000 : en:Chapter 1
    00:06:36.813 : en:Chapter 2
    00:14:39.962 : en:Chapter 3
    00:24:32.304 : en:Chapter 4
    00:34:20.058 : en:Chapter 5
    00:43:29.898 : en:Chapter 6
    00:53:51.228 : en:Chapter 7
    01:05:26.297 : en:Chapter 8
    01:18:12.771 : en:Chapter 9
    01:31:57.595 : en:Chapter 10
    01:44:52.411 : en:Chapter 11
    01:56:21.015 : en:Chapter 12

    Release was prepared by 60-fps.org



    Last edited by Kryl on 2017-04-17 07:56; edited 1 time in total
  2. Longevity:
    5 years 1 month
    Posts:
    27
    Gender:
    Male
    достойный документальный фильм,памяи Жака-Ива-Кусто! ценителям его ДОСТИЖЕНИЙ( я бы сказал) СОВЕТУЮ! за качество низкий поклон! Привет
    21-Apr-2017 20:21 (after 1 month 15 days)


You cannot post new topics in this forum
You cannot reply to topics in this forum
You cannot edit your posts in this forum
You cannot delete your posts in this forum
You cannot vote in polls in this forum
You cannot attach files in this forum
You cannot download files in this forum