«First, he was home alone, now he's lost in New York»- Информация
Название: Один дома 2: Затерянный в Нью-Йорке
Оригинальное название: Home Alone 2: Lost in New York
Год выхода: 1992
Жанр: комедия, приключения, семейный
Режиссер: Крис Коламбус
Сценарий: Джон Хьюз
Продюсер: Джон Хьюз, Дункан Хендерсон, Марк Рэдклифф
В ролях: Маколей Калкин, Джо Пеши, Дэниел Стерн, Джон Хёрд, Кэтрин О’Хара, Эдди Брекен, Девин Рэтрей, Киран Калкин, Джерри Бэммен, Роб Шнайдер, Дэна Айви, Хиллари Вульф, Тим Карри, Бренда Фрикер
--Сюжет:
Самый маленький герой Америки устраивает большой переполох в Нью-Йорке! Кевин МакКалистер вернулся! Но теперь он один не дома, а в Нью-Йорке и у него достаточно денег и кредитных карточек, чтобы превратить Большое Яблоко в собственную площадку для игр.
Но, как всегда, Кевину не суждено быть долго одному: его старые приятели ― жулики Гарри и Марв ― сбежали из тюрьмы, куда они попали стараниями Кевина. И надо же им было попасть именно в тот город, где Кевин планировал поразвлечься! Новые западни и ловушки уже ждут горе-бандитов.
- - Страна: США
Продолжительность: 02:00:01

Файл
Кодек: MPEG4/ISO/AVC H.264
Формат: MKV
Качество: BDRip 720p | 60 fps
Видео: 1280x692 (1.85:1) | 59.940 fps | 11.0 Мбит/сек
Аудио 01: AC3 | 5.1 | 48 kHz | 448 kbps | 16 bit | Дублированный |
Аудио 02: AC3 | 5.1 | 48 kHz | 384 kbps | 16 bit | Многоголосый закадровый, R5 |
Аудио 03: AC3 | 5.1 | 48 kHz | 448 kbps | 16 bit | Многоголосый закадровый, Неизвестный |
Аудио 04: AC3 | 2.0 | 48 kHz | 192 kbps | 16 bit | Многоголосый закадровый, ОРТ |
Аудио 05: AC3 | 2.0 | 48 kHz | 192 kbps | 16 bit | Многоголосый закадровый, Премьер Видео Фильм |
Аудио 06: AC3 | 2.0 | 48 kHz | 192 kbps | 16 bit | Двухголосый закадровый, НТВ |
Аудио 07: AC3 | 2.0 | 48 kHz | 192 kbps | 16 bit | Двухголосый закадровый, Неизвестный |
Аудио 08: AC3 | 5.1 | 48 kHz | 448 kbps | 16 bit | Авторский одноголосый закадровый, Горчаков |
Аудио 09: AC3 | 5.1 | 48 kHz | 448 kbps | 16 bit | Авторский одноголосый закадровый, Михалев |
Аудио 10: AC3 | 2.0 | 48 kHz | 192 kbps | 16 bit | Авторский одноголосый закадровый, Дохалов |
Аудио 11: AC3 | 2.0 | 48 kHz | 192 kbps | 16 bit | Авторский одноголосый закадровый, Марченко |
Аудио 12: AC3 | 2.0 | 48 kHz | 192 kbps | 16 bit | Авторский одноголосый закадровый, Прямостанов |
Аудио 13: AC3 | 2.0 | 48 kHz | 192 kbps | 16 bit | Одноголосый закадровый, Александров |
Аудио 14: AC3 | 2.0 | 48 kHz | 192 kbps | 16 bit | Одноголосый закадровый, Краснов |
Аудио 15: AC3 | 5.1 | 48 kHz | 448 kbps | 16 bit | ENG |
Субтитры: Русские | Полные, Английские | Полные

MedifInfo

Video
ID : 1
Format : AVC
Format/Info : Advanced Video Codec
Format profile : High@L4.1
Format settings, CABAC : Yes
Format settings, ReFrames : 8 frames
Codec ID : V_MPEG4/ISO/AVC
Duration : 2h 0mn
Bit rate : 10.7 Mbps
Width : 1 280 pixels
Height : 692 pixels
Display aspect ratio : 1.85:1
Frame rate mode : Constant
Frame rate : 59.880 fps
Original frame rate : 59.940 fps
Color space : YUV
Chroma subsampling : 4:2:0
Bit depth : 8 bits
Scan type : Progressive
Bits/(Pixel*Frame) : 0.202
Stream size : 9.00 GiB (70%)
Title : Один дома 2: Затерянный в Нью-Йорке.(1992).BDRip.720p.[envy].[60fps]
Writing library : x264 core 146 r2538 121396c
Encoding settings : cabac=1 / ref=8 / deblock=1:0:0 / analyse=0x3:0x113 / me=umh / subme=10 / psy=1 / psy_rd=1.00:0.00 / mixed_ref=1 / me_range=24 / chroma_me=1 / trellis=2 / 8x8dct=1 / cqm=0 / deadzone=21,11 / fast_pskip=0 / chroma_qp_offset=-2 / threads=12 / lookahead_threads=1 / sliced_threads=0 / nr=0 / decimate=1 / interlaced=0 / bluray_compat=0 / constrained_intra=0 / bframes=5 / b_pyramid=2 / b_adapt=2 / b_bias=0 / direct=3 / weightb=1 / open_gop=0 / weightp=2 / keyint=250 / keyint_min=25 / scenecut=40 / intra_refresh=0 / rc_lookahead=40 / rc=crf / mbtree=0 / crf=19.0 / qcomp=0.60 / qpmin=0 / qpmax=69 / qpstep=4 / vbv_maxrate=14000 / vbv_bufsize=14000 / crf_max=0.0 / nal_hrd=none / filler=0 / ip_ratio=1.40 / pb_ratio=1.30 / aq=3:1.00
Language : English
Default : Yes
Forced : No
Audio #1
ID : 2
Format : AC-3
Format/Info : Audio Coding 3
Mode extension : CM (complete main)
Format settings, Endianness : Big
Codec ID : A_AC3
Duration : 2h 0mn
Bit rate mode : Constant
Bit rate : 448 Kbps
Channel(s) : 6 channels
Channel positions : Front: L C R, Side: L R, LFE
Sampling rate : 48.0 KHz
Compression mode : Lossy
Stream size : 385 MiB (3%)
Title : Dub Blu-Ray CEE
Language : Russian
Default : Yes
Forced : No
Audio #2
ID : 3
Format : AC-3
Format/Info : Audio Coding 3
Mode extension : CM (complete main)
Format settings, Endianness : Big
Codec ID : A_AC3
Duration : 2h 0mn
Bit rate mode : Constant
Bit rate : 384 Kbps
Channel(s) : 6 channels
Channel positions : Front: L C R, Side: L R, LFE
Sampling rate : 48.0 KHz
Compression mode : Lossy
Stream size : 330 MiB (2%)
Title : MVO R5
Language : Russian
Default : No
Forced : No
Audio #3
ID : 4
Format : AC-3
Format/Info : Audio Coding 3
Mode extension : CM (complete main)
Format settings, Endianness : Big
Codec ID : A_AC3
Duration : 2h 0mn
Bit rate mode : Constant
Bit rate : 448 Kbps
Channel(s) : 6 channels
Channel positions : Front: L C R, Side: L R, LFE
Sampling rate : 48.0 KHz
Compression mode : Lossy
Stream size : 385 MiB (3%)
Title : MVO
Language : Russian
Default : No
Forced : No
Audio #4
ID : 5
Format : AC-3
Format/Info : Audio Coding 3
Mode extension : CM (complete main)
Format settings, Endianness : Big
Codec ID : A_AC3
Duration : 2h 0mn
Bit rate mode : Constant
Bit rate : 192 Kbps
Channel(s) : 2 channels
Channel positions : Front: L R
Sampling rate : 48.0 KHz
Compression mode : Lossy
Stream size : 165 MiB (1%)
Title : MVO ОРТ
Language : Russian
Default : No
Forced : No
Audio #5
ID : 6
Format : AC-3
Format/Info : Audio Coding 3
Mode extension : CM (complete main)
Format settings, Endianness : Big
Codec ID : A_AC3
Duration : 2h 0mn
Bit rate mode : Constant
Bit rate : 192 Kbps
Channel(s) : 2 channels
Channel positions : Front: L R
Sampling rate : 48.0 KHz
Compression mode : Lossy
Stream size : 165 MiB (1%)
Title : MVO Премьер Видео Фильм
Language : Russian
Default : No
Forced : No
Audio #6
ID : 7
Format : AC-3
Format/Info : Audio Coding 3
Mode extension : CM (complete main)
Format settings, Endianness : Big
Codec ID : A_AC3
Duration : 2h 0mn
Bit rate mode : Constant
Bit rate : 192 Kbps
Channel(s) : 2 channels
Channel positions : Front: L R
Sampling rate : 48.0 KHz
Compression mode : Lossy
Stream size : 165 MiB (1%)
Title : DVO НТВ
Language : Russian
Default : No
Forced : No
Audio #7
ID : 8
Format : AC-3
Format/Info : Audio Coding 3
Mode extension : CM (complete main)
Format settings, Endianness : Big
Codec ID : A_AC3
Duration : 2h 0mn
Bit rate mode : Constant
Bit rate : 192 Kbps
Channel(s) : 2 channels
Channel positions : Front: L R
Sampling rate : 48.0 KHz
Compression mode : Lossy
Stream size : 165 MiB (1%)
Title : DVO
Language : Russian
Default : No
Forced : No
Audio #8
ID : 9
Format : AC-3
Format/Info : Audio Coding 3
Mode extension : CM (complete main)
Format settings, Endianness : Big
Codec ID : A_AC3
Duration : 2h 0mn
Bit rate mode : Constant
Bit rate : 448 Kbps
Channel(s) : 6 channels
Channel positions : Front: L C R, Side: L R, LFE
Sampling rate : 48.0 KHz
Compression mode : Lossy
Stream size : 385 MiB (3%)
Title : AVO Горчаков
Language : Russian
Default : No
Forced : No
Audio #9
ID : 10
Format : AC-3
Format/Info : Audio Coding 3
Mode extension : CM (complete main)
Format settings, Endianness : Big
Codec ID : A_AC3
Duration : 2h 0mn
Bit rate mode : Constant
Bit rate : 448 Kbps
Channel(s) : 6 channels
Channel positions : Front: L C R, Side: L R, LFE
Sampling rate : 48.0 KHz
Compression mode : Lossy
Stream size : 385 MiB (3%)
Title : AVO Михалев
Language : Russian
Default : No
Forced : No
Audio #10
ID : 11
Format : AC-3
Format/Info : Audio Coding 3
Mode extension : CM (complete main)
Format settings, Endianness : Big
Codec ID : A_AC3
Duration : 2h 0mn
Bit rate mode : Constant
Bit rate : 192 Kbps
Channel(s) : 2 channels
Channel positions : Front: L R
Sampling rate : 48.0 KHz
Compression mode : Lossy
Stream size : 165 MiB (1%)
Title : AVO Дохалов
Language : Russian
Default : No
Forced : No
Audio #11
ID : 12
Format : AC-3
Format/Info : Audio Coding 3
Mode extension : CM (complete main)
Format settings, Endianness : Big
Codec ID : A_AC3
Duration : 2h 0mn
Bit rate mode : Constant
Bit rate : 192 Kbps
Channel(s) : 2 channels
Channel positions : Front: L R
Sampling rate : 48.0 KHz
Compression mode : Lossy
Stream size : 165 MiB (1%)
Title : AVO Марченко
Language : Russian
Default : No
Forced : No
Audio #12
ID : 13
Format : AC-3
Format/Info : Audio Coding 3
Mode extension : CM (complete main)
Format settings, Endianness : Big
Codec ID : A_AC3
Duration : 2h 0mn
Bit rate mode : Constant
Bit rate : 192 Kbps
Channel(s) : 2 channels
Channel positions : Front: L R
Sampling rate : 48.0 KHz
Compression mode : Lossy
Stream size : 165 MiB (1%)
Title : AVO Прямостанов
Language : Russian
Default : No
Forced : No
Audio #13
ID : 14
Format : AC-3
Format/Info : Audio Coding 3
Mode extension : CM (complete main)
Format settings, Endianness : Big
Codec ID : A_AC3
Duration : 2h 0mn
Bit rate mode : Constant
Bit rate : 192 Kbps
Channel(s) : 2 channels
Channel positions : Front: L R
Sampling rate : 48.0 KHz
Compression mode : Lossy
Stream size : 165 MiB (1%)
Title : VO Александров
Language : Russian
Default : No
Forced : No
Audio #14
ID : 15
Format : AC-3
Format/Info : Audio Coding 3
Mode extension : CM (complete main)
Format settings, Endianness : Big
Codec ID : A_AC3
Duration : 2h 0mn
Bit rate mode : Constant
Bit rate : 192 Kbps
Channel(s) : 2 channels
Channel positions : Front: L R
Sampling rate : 48.0 KHz
Compression mode : Lossy
Stream size : 165 MiB (1%)
Title : VO Краснов
Language : Russian
Default : No
Forced : No
Audio #15
ID : 16
Format : AC-3
Format/Info : Audio Coding 3
Mode extension : CM (complete main)
Format settings, Endianness : Big
Codec ID : A_AC3
Duration : 2h 0mn
Bit rate mode : Constant
Bit rate : 448 Kbps
Channel(s) : 6 channels
Channel positions : Front: L C R, Side: L R, LFE
Sampling rate : 48.0 KHz
Compression mode : Lossy
Stream size : 385 MiB (3%)
Title : Eng
Language : English
Default : No
Forced : No
Text #1
ID : 17
Format : UTF-8
Codec ID : S_TEXT/UTF8
Codec ID/Info : UTF-8 Plain Text
Title : Rus full
Language : Russian
Default : No
Forced : No
Text #2
ID : 18
Format : UTF-8
Codec ID : S_TEXT/UTF8
Codec ID/Info : UTF-8 Plain Text
Title : Eng full
Language : English
Default : No
Forced : No
Menu
00:00:00.000 : :Chapter 01
00:02:08.837 : :Chapter 02
00:08:40.186 : :Chapter 03
00:15:24.840 : :Chapter 04
00:19:59.740 : :Chapter 05
00:27:50.210 : :Chapter 06
00:33:07.235 : :Chapter 07
00:38:53.956 : :Chapter 08
00:44:36.465 : :Chapter 09
00:49:22.459 : :Chapter 10
00:57:44.252 : :Chapter 11
01:00:48.811 : :Chapter 12
01:06:31.529 : :Chapter 13
01:23:21.287 : :Chapter 14
01:34:20.529 : :Chapter 15
01:47:34.239 : :Chapter 16
01:57:06.394 : :Chapter 17

[Цитировать]
WonderChild

А первая часть будет?

_________________
Подпись отключена за нарушение правил форума

[Цитировать]
envy

WonderChild, я вроде первую часть делал... в 1080

[Цитировать]
Fragrance

WonderChild, я вроде первую часть делал... в 1080
Первая часть в 720 р 60 fps будет? За вторую большое спасибо). Классно получилось)

[Цитировать]
unquaid

4731WonderChild, я вроде первую часть делал... в 1080
А вторая 1080 уже тоже была?
 
Показать сообщения:    

Текущее время: 07-Дек 19:25

Часовой пояс: UTC + 3


Вы не можете начинать темы
Вы не можете отвечать на сообщения
Вы не можете редактировать свои сообщения
Вы не можете удалять свои сообщения
Вы не можете голосовать в опросах
Вы не можете прикреплять файлы к сообщениям
Вы не можете скачивать файлы