[Цитировать]
Kryl

Серия фильмов Очень Страшное Кино главным образом пародирует популярные фильмы ужасов и собрала более чем 817 млн $ по всему миру. Во всех частях есть две главные героини — Анна Фэрис и Реджина Холл, сыгравшие Синди Кэмпбелл и Бренду Микс соответственно. К ним присоединяются новые или те же актёры и персонажи.
Фильмы были выпущены компанией Dimension Films при помощи двух различных студий: Miramax Films, так как первоначально они были лейблом этой студии, когда исполнительные продюсеры Боб Вайнштейн и Харви Вайнштейн работали над первыми тремя частями, и The Weinstein Company, недавно сформированная студия братьев, которая в настоящее время производит остальную часть выпуска серии после ухода из Miramax, оставив лейбл Dimension Films у себя. Miramax/Disney сохраняет права международной дистрибуции.

Очень страшное кино / Scary Movie (2000)

«Ни стыда. Ни совести. Ни сиквела»- Информация
Название: Очень страшное кино
Оригинальное название: Scary Movie
Год выхода: 2000
Жанр: комедия
Режиссер: Кинен Айвори Уайанс
Сценарий: Шон Уайанс, Марлон Уайанс, Бадди Джонсон
Продюсер: Эрик Л. Голд, Ли Р. Майес, Лиза Блум
В ролях: Кармен Электра, Дейв Шеридан, Фрэнк Б. Мур, Джакомо Бессато, Кайл Грэхэм, Лиэнн Сантос, Марк МакКончи, Карен Крупер, Анна Фэрис, Джон Абрахамс
--Сюжет:
В каждом уважающем себя фильме ужасов есть телефон, который вот-вот зазвонит; жертва, которая вот-вот завопит; убийца, который вот-вот нанесет смертельный удар. И единственный способ остаться в живых — это твердо помнить, что надо всегда опережать убийцу на один шаг…
Когда сексуальная репортерша, вечно сующая свой нос, на пару с попадающим во всякие дурацкие истории охранником из супермаркета пытается остановить убийцу, задумавшего расправиться с самыми видными учениками средней школы Булемия-Фоллз, начинается такое… ну очень страшное кино.
- - Страна: США
Продолжительность: 01:28:52

Файл
Кодек: MPEG4/ISO/AVC H.264
Формат: MKV
Качество: BDRip-AVC 60 fps
Видео: 1024x432 (2.35:1) | 59.940 fps | 4.0 Мбит/сек
Аудио: AC3 | 5.1 | 48 kHz | 640 kbps | 16 bit | Дубляж |
Субтитры: русские (Полные), английские (Полные)

MedifInfo

Video
ID : 1
Format : AVC
Format/Info : Advanced Video Codec
Format profile : High@L4.1
Format settings, CABAC : Yes
Format settings, ReFrames : 4 frames
Codec ID : V_MPEG4/ISO/AVC
Duration : 1h 28mn
Bit rate : 4 000 Kbps
Width : 1 024 pixels
Height : 432 pixels
Display aspect ratio : 2.35:1
Frame rate : 59.940 fps
Color space : YUV
Chroma subsampling : 4:2:0
Bit depth : 8 bits
Scan type : Progressive
Bits/(Pixel*Frame) : 0.151
Stream size : 2.41 GiB (84%)
Title : Tiberiumsun69
Writing library : x264 core 146 r2538 121396c
Encoding settings : cabac=1 / ref=3 / deblock=1:0:0 / analyse=0x3:0x113 / me=umh / subme=9 / psy=1 / psy_rd=1.00:0.10 / mixed_ref=1 / me_range=32 / chroma_me=1 / trellis=2 / 8x8dct=1 / cqm=0 / deadzone=21,11 / fast_pskip=0 / chroma_qp_offset=-3 / threads=12 / lookahead_threads=3 / sliced_threads=0 / nr=0 / decimate=1 / interlaced=0 / bluray_compat=0 / constrained_intra=0 / bframes=16 / b_pyramid=2 / b_adapt=2 / b_bias=0 / direct=3 / weightb=1 / open_gop=0 / weightp=2 / keyint=600 / keyint_min=59 / scenecut=40 / intra_refresh=0 / rc_lookahead=40 / rc=2pass / mbtree=0 / bitrate=4000 / ratetol=1.0 / qcomp=0.60 / qpmin=0 / qpmax=69 / qpstep=4 / cplxblur=20.0 / qblur=0.5 / vbv_maxrate=14000 / vbv_bufsize=14000 / nal_hrd=none / filler=0 / ip_ratio=1.40 / pb_ratio=1.30 / aq=1:1.00
Language : English
Default : Yes
Forced : No
Audio
ID : 2
Format : AC-3
Format/Info : Audio Coding 3
Mode extension : CM (complete main)
Codec ID : A_AC3
Duration : 1h 28mn
Bit rate mode : Constant
Bit rate : 640 Kbps
Channel(s) : 6 channels
Channel positions : Front: L C R, Side: L R, LFE
Sampling rate : 48.0 KHz
Bit depth : 16 bits
Compression mode : Lossy
Stream size : 407 MiB (14%)
Title : Дубляж
Language : Russian
Default : Yes
Forced : No
Text #1
ID : 3
Format : UTF-8
Codec ID : S_TEXT/UTF8
Codec ID/Info : UTF-8 Plain Text
Title : Полные
Language : Russian
Default : No
Forced : No
Text #2
ID : 4
Format : UTF-8
Codec ID : S_TEXT/UTF8
Codec ID/Info : UTF-8 Plain Text
Title : Полные
Language : English
Default : No
Forced : No
Menu
00:00:00.000 : en:Chapter 1
00:08:08.529 : en:Chapter 2
00:14:01.048 : en:Chapter 3
00:22:53.663 : en:Chapter 4
00:29:35.774 : en:Chapter 5
00:37:11.062 : en:Chapter 6
00:44:20.616 : en:Chapter 7
00:52:28.895 : en:Chapter 8
00:59:18.221 : en:Chapter 9
01:08:49.959 : en:Chapter 10
01:15:44.122 : en:Chapter 11
01:20:26.279 : en:Chapter 12

Очень страшное кино 2 / Scary Movie 2 (2001)

«Ещё бессовестней. Ещё бесстыдней»- Информация
Название: Очень страшное кино 2
Оригинальное название: Scary Movie 2
Год выхода: 2001
Жанр: комедия
Режиссер: Кинен Айвори Уайанс
Сценарий: Шон Уайанс, Марлон Уайанс, Элисон Фаус
Продюсер: Эрик Л. Голд, Рик Альварез, Лиза Блум
В ролях: Анна Фэрис, Марлон Уайанс, Джеймс ДеБелло, Шон Уайанс, Дэвид Кросс, Реджина Холл, Кристофер Мастерсон, Тим Карри, Кэтлин Робертсон, Крис Эллиот
--Сюжет:
Отыгравшись по полной программе в фильме «Очень страшное кино» на молодежных ужастиках, создатели картины окончательно потеряли стыд и совесть! Теперь пришла очередь киноклассики «Изгоняющий дьявола», «Полтергейст», «Кладбище домашних животных» и таких блокбастеров как: «Ангелы Чарли», «Миссия невыполнима 2», «Что скрывает ложь», «Ганнибал», «Призрак дома на холме». Мало не покажется!- - Страна: США, Канада
Продолжительность: 01:22:27

Файл
Кодек: MPEG4/ISO/AVC H.264
Формат: MKV
Качество: BDRip-AVC 60 fps
Видео: 1024x576 (16:9) | 59.940 fps | 5.3 Мбит/сек
Аудио: AC3 | 5.1 | 48 kHz | 640 kbps | 16 bit | Дубляж |
Субтитры: русские (Полные), английские (Полные)

MedifInfo

Video
ID : 1
Format : AVC
Format/Info : Advanced Video Codec
Format profile : High@L4.1
Format settings, CABAC : Yes
Format settings, ReFrames : 4 frames
Codec ID : V_MPEG4/ISO/AVC
Duration : 1h 22mn
Bit rate : 5 300 Kbps
Width : 1 024 pixels
Height : 576 pixels
Display aspect ratio : 16:9
Frame rate : 59.940 fps
Color space : YUV
Chroma subsampling : 4:2:0
Bit depth : 8 bits
Scan type : Progressive
Bits/(Pixel*Frame) : 0.150
Stream size : 2.98 GiB (87%)
Title : Tiberiumsun69
Writing library : x264 core 146 r2538 121396c
Encoding settings : cabac=1 / ref=3 / deblock=1:0:0 / analyse=0x3:0x113 / me=umh / subme=9 / psy=1 / psy_rd=1.00:0.10 / mixed_ref=1 / me_range=32 / chroma_me=1 / trellis=2 / 8x8dct=1 / cqm=0 / deadzone=21,11 / fast_pskip=0 / chroma_qp_offset=-3 / threads=12 / lookahead_threads=3 / sliced_threads=0 / nr=0 / decimate=1 / interlaced=0 / bluray_compat=0 / constrained_intra=0 / bframes=16 / b_pyramid=2 / b_adapt=2 / b_bias=0 / direct=3 / weightb=1 / open_gop=0 / weightp=2 / keyint=600 / keyint_min=59 / scenecut=40 / intra_refresh=0 / rc_lookahead=40 / rc=2pass / mbtree=0 / bitrate=5300 / ratetol=1.0 / qcomp=0.60 / qpmin=0 / qpmax=69 / qpstep=4 / cplxblur=20.0 / qblur=0.5 / vbv_maxrate=14000 / vbv_bufsize=14000 / nal_hrd=none / filler=0 / ip_ratio=1.40 / pb_ratio=1.30 / aq=1:1.00
Language : English
Default : Yes
Forced : No
Audio
ID : 2
Format : AC-3
Format/Info : Audio Coding 3
Mode extension : CM (complete main)
Codec ID : A_AC3
Duration : 1h 22mn
Bit rate mode : Constant
Bit rate : 640 Kbps
Channel(s) : 6 channels
Channel positions : Front: L C R, Side: L R, LFE
Sampling rate : 48.0 KHz
Bit depth : 16 bits
Compression mode : Lossy
Stream size : 377 MiB (11%)
Title : Дубляж
Language : Russian
Default : Yes
Forced : No
Text #1
ID : 3
Format : UTF-8
Codec ID : S_TEXT/UTF8
Codec ID/Info : UTF-8 Plain Text
Title : Полные
Language : Russian
Default : No
Forced : No
Text #2
ID : 4
Format : UTF-8
Codec ID : S_TEXT/UTF8
Codec ID/Info : UTF-8 Plain Text
Title : Полные
Language : English
Default : No
Forced : No
Menu
00:00:00.000 : en:Chapter 1
00:07:33.995 : en:Chapter 2
00:14:24.905 : en:Chapter 3
00:20:21.428 : en:Chapter 4
00:28:12.941 : en:Chapter 5
00:35:57.238 : en:Chapter 6
00:42:33.175 : en:Chapter 7
00:51:04.144 : en:Chapter 8
00:56:01.983 : en:Chapter 9
01:04:23.776 : en:Chapter 10
01:12:57.331 : en:Chapter 11
01:14:44.605 : en:Chapter 12

Очень страшное кино 3 / Scary Movie 3 (2003)

«Тройная перезагрузка»- Информация
Название: Очень страшное кино 3
Оригинальное название: Scary Movie 3
Год выхода: 2003
Жанр: комедия
Режиссер: Дэвид Цукер
Сценарий: Крэйг Мазин, Пэт Профт, Шон Уайанс
Продюсер: Роберт К. Уайсс, Фил Дорнфелд, Грэйс Гилрой
В ролях: Чарли Шин, Анна Фарис, Памела Андерсон, Дженни МакКарти, Джереми Пайвен, Саймон Рекс, Эдди Гриффин, Куин Латифа, Мейси Грей, Реджина Холл, Энтони Андерсон и др.
--Сюжет:
Журналистка Синди Кэмпбелл охвачена желанием сделать скандальный репортаж о каком-нибудь мировом заговоре и открыть самые секретные материалы! Кто ищет, тот всегда найдёт: вскоре Синди становится свидетельницей необъяснимых явлений.
На Землю вот-вот высадится десант зловещих инопланетян, на полях появились странные концентрические круги, некий Избранный пророчит нехорошее всему человечеству, дети со странными глазами пугают взрослых, под угрозой жизнь самого Президента, а амбициозные белые рэперы совершили подозрительный прорыв в мире шоу-бизнеса! Зло наступает со всех сторон, и Синди должна сражаться, чтобы спасти мир еще раз!
- - Страна: США, Канада
Продолжительность: 01:25:41

Файл
Кодек: MPEG4/ISO/AVC H.264
Формат: MKV
Качество: BDRip-AVC 60 fps
Видео: 1024x552 (1.855) | 59.940 fps | 5.1 Мбит/сек
Аудио: AC3 | 5.1 | 48 kHz | 384 kbps | 16 bit | Дубляж + Форс. субтитры на реж. места |
Субтитры: русские (Форсированные), русские (Полные), английские (Полные)

MedifInfo

Video
ID : 1
Format : AVC
Format/Info : Advanced Video Codec
Format profile : High@L4.1
Format settings, CABAC : Yes
Format settings, ReFrames : 4 frames
Codec ID : V_MPEG4/ISO/AVC
Duration : 1h 25mn
Bit rate : 5 100 Kbps
Width : 1 024 pixels
Height : 552 pixels
Display aspect ratio : 1.855
Frame rate : 59.940 fps
Color space : YUV
Chroma subsampling : 4:2:0
Bit depth : 8 bits
Scan type : Progressive
Bits/(Pixel*Frame) : 0.151
Stream size : 2.98 GiB (91%)
Title : Tiberiumsun69
Writing library : x264 core 146 r2538 121396c
Encoding settings : cabac=1 / ref=3 / deblock=1:0:0 / analyse=0x3:0x113 / me=umh / subme=9 / psy=1 / psy_rd=1.00:0.10 / mixed_ref=1 / me_range=32 / chroma_me=1 / trellis=2 / 8x8dct=1 / cqm=0 / deadzone=21,11 / fast_pskip=0 / chroma_qp_offset=-3 / threads=12 / lookahead_threads=3 / sliced_threads=0 / nr=0 / decimate=1 / interlaced=0 / bluray_compat=0 / constrained_intra=0 / bframes=16 / b_pyramid=2 / b_adapt=2 / b_bias=0 / direct=3 / weightb=1 / open_gop=0 / weightp=2 / keyint=600 / keyint_min=59 / scenecut=40 / intra_refresh=0 / rc_lookahead=40 / rc=2pass / mbtree=0 / bitrate=5100 / ratetol=1.0 / qcomp=0.60 / qpmin=0 / qpmax=69 / qpstep=4 / cplxblur=20.0 / qblur=0.5 / vbv_maxrate=14000 / vbv_bufsize=14000 / nal_hrd=none / filler=0 / ip_ratio=1.40 / pb_ratio=1.30 / aq=1:1.00
Language : English
Default : Yes
Forced : No
Audio
ID : 2
Format : AC-3
Format/Info : Audio Coding 3
Mode extension : CM (complete main)
Codec ID : A_AC3
Duration : 1h 25mn
Bit rate mode : Constant
Bit rate : 384 Kbps
Channel(s) : 6 channels
Channel positions : Front: L C R, Side: L R, LFE
Sampling rate : 48.0 KHz
Bit depth : 16 bits
Compression mode : Lossy
Delay relative to video : 1s 0ms
Stream size : 235 MiB (7%)
Title : Дубляж
Language : Russian
Default : Yes
Forced : No
Text #1
ID : 3
Format : UTF-8
Codec ID : S_TEXT/UTF8
Codec ID/Info : UTF-8 Plain Text
Title : Форсированные
Language : Russian
Default : Yes
Forced : No
Text #2
ID : 4
Format : UTF-8
Codec ID : S_TEXT/UTF8
Codec ID/Info : UTF-8 Plain Text
Title : Полные
Language : Russian
Default : No
Forced : No
Text #3
ID : 5
Format : UTF-8
Codec ID : S_TEXT/UTF8
Codec ID/Info : UTF-8 Plain Text
Title : Полные
Language : English
Default : No
Forced : No
Menu
00:00:00.000 : en:Chapter 1
00:08:08.529 : en:Chapter 2
00:14:01.048 : en:Chapter 3
00:22:53.663 : en:Chapter 4
00:29:35.774 : en:Chapter 5
00:37:11.062 : en:Chapter 6
00:44:20.616 : en:Chapter 7
00:52:28.895 : en:Chapter 8
00:59:18.221 : en:Chapter 9
01:08:49.959 : en:Chapter 10
01:15:44.122 : en:Chapter 11
01:20:26.279 : en:Chapter 12

Очень страшное кино 4 / Scary Movie 4 (2006)

«Это четвертая и последняя часть трилогии»- Информация
Название: Очень страшное кино 4
Оригинальное название: Scary Movie 4
Год выхода: 2006
Жанр: комедия
Режиссер: Дэвид Цукер
Сценарий: Крэйг Мазин, Джим Абрахамс, Пэт Профт
Продюсер: Крэйг Мазин, Роберт К. Уайсс, Фил Дорнфелд
В ролях: Анна Фэрис, Реджина Холл, Крэйг Бирко, Билл Пуллман, Энтони Андерсон, Лесли Нильсен, Майкл Мэдсен, Кевин Харт, Саймон Рекс, Шакил О’Нил и др.
--Сюжет:
Журналистка Синди Кэмпбелл все еще не может оправиться после ужасных событий, произошедших с ней за последнее время. Чтобы сменить обстановку, она устраивается на работу сиделкой к пожилой женщине.
Вскоре Синди знакомится с овдовевшим соседом Томом Райаном и влюбляется в него. Казалось бы, жизнь начинает налаживаться, как вдруг на Землю высаживаются инопланетяне, которые хотят уничтожить все человечество. Том и Синди вступают в отчаянную схватку с пришельцами…
- - Страна: США, Канада
Продолжительность: 01:29:32

Файл
Кодек: MPEG4/ISO/AVC H.264
Формат: MKV
Качество: BDRip-AVC 60 fps
Видео: 1024x552 (1.855) | 59.940 fps | 5.0 Мбит/сек
Аудио: AC3 | 5.1 | 48 kHz | 448 kbps | 16 bit | Дубляж + Форс. субтитры на реж. места |
Субтитры: русские (Форсированные), русские (Полные), английские

MedifInfo

Video
ID : 1
Format : AVC
Format/Info : Advanced Video Codec
Format profile : High@L4.1
Format settings, CABAC : Yes
Format settings, ReFrames : 4 frames
Codec ID : V_MPEG4/ISO/AVC
Duration : 1h 29mn
Bit rate : 5 000 Kbps
Width : 1 024 pixels
Height : 552 pixels
Display aspect ratio : 1.855
Frame rate : 59.940 fps
Color space : YUV
Chroma subsampling : 4:2:0
Bit depth : 8 bits
Scan type : Progressive
Bits/(Pixel*Frame) : 0.148
Stream size : 3.06 GiB (90%)
Title : Tiberiumsun69
Writing library : x264 core 146 r2538 121396c
Encoding settings : cabac=1 / ref=3 / deblock=1:0:0 / analyse=0x3:0x113 / me=umh / subme=9 / psy=1 / psy_rd=1.00:0.10 / mixed_ref=1 / me_range=32 / chroma_me=1 / trellis=2 / 8x8dct=1 / cqm=0 / deadzone=21,11 / fast_pskip=0 / chroma_qp_offset=-3 / threads=12 / lookahead_threads=3 / sliced_threads=0 / nr=0 / decimate=1 / interlaced=0 / bluray_compat=0 / constrained_intra=0 / bframes=16 / b_pyramid=2 / b_adapt=2 / b_bias=0 / direct=3 / weightb=1 / open_gop=0 / weightp=2 / keyint=600 / keyint_min=59 / scenecut=40 / intra_refresh=0 / rc_lookahead=40 / rc=2pass / mbtree=0 / bitrate=5000 / ratetol=1.0 / qcomp=0.60 / qpmin=0 / qpmax=69 / qpstep=4 / cplxblur=20.0 / qblur=0.5 / vbv_maxrate=14000 / vbv_bufsize=14000 / nal_hrd=none / filler=0 / ip_ratio=1.40 / pb_ratio=1.30 / aq=1:1.00
Language : English
Default : Yes
Forced : No
Audio
ID : 2
Format : AC-3
Format/Info : Audio Coding 3
Mode extension : CM (complete main)
Codec ID : A_AC3
Duration : 1h 29mn
Bit rate mode : Constant
Bit rate : 448 Kbps
Channel(s) : 6 channels
Channel positions : Front: L C R, Side: L R, LFE
Sampling rate : 48.0 KHz
Bit depth : 16 bits
Compression mode : Lossy
Stream size : 287 MiB (8%)
Title : Дубляж
Language : Russian
Default : Yes
Forced : No
Text #1
ID : 3
Format : UTF-8
Codec ID : S_TEXT/UTF8
Codec ID/Info : UTF-8 Plain Text
Title : Форсированные
Language : Russian
Default : Yes
Forced : No
Text #2
ID : 4
Format : UTF-8
Codec ID : S_TEXT/UTF8
Codec ID/Info : UTF-8 Plain Text
Title : Полные
Language : Russian
Default : No
Forced : No
Text #3
ID : 5
Format : PGS
Muxing mode : zlib
Codec ID : S_HDMV/PGS
Codec ID/Info : The same subtitle format used on BDs/HD-DVDs
Language : English
Default : No
Forced : No

Очень страшное кино 5 / Scary Movie 5 (2013)

«Зло поднимается. Готовьте контрацептивы»- Информация
Название: Очень страшное кино 5
Оригинальное название: Scary Movie 5
Год выхода: 2013
Жанр: комедия
Режиссер: Малкольм Д. Ли, Дэвид Цукер
Сценарий: Дэвид Цукер, Пэт Профт
Продюсер: Фил Дорнфелд, Дэвид Цукер, Брайан Белл
В ролях: Эшли Тисдейл, Саймон Рекс, Эрика Эш, Катрина Боуден, Терри Крюс, Хэзер Локлир, Жан-Поль Мано, Джерри О’Коннелл, Молли Шеннон, Снуп Догг
--Сюжет:
Молодая супружеская пара Дэн и Джоди начинают замечать некоторые странные активности, когда они приносят двух осиротевших племянниц домой из больницы. Но когда нарастают проблемы и хаос в работе Джоди и карьере Дэна, они понимают, что их семью преследуют гнусные демоны. Вместе с советом сертифицированных специалистов и при помощи многочисленных камер, они должны выяснить, как избавиться от этих существ, пока не стало слишком поздно.- - Страна: США
Продолжительность: 01:25:46

Файл
Кодек: MPEG4/ISO/AVC H.264
Формат: MKV
Качество: BDRip-AVC 60 fps
Видео: 1024x576 (16:9) | 59.940 fps | 5.3 Мбит/сек
Аудио: AC3 | 5.1 | 48 kHz | 640 kbps | 16 bit | Дубляж |
Субтитры: русские (Форсированные), русские (Полные), английские

MedifInfo

Video
ID : 1
Format : AVC
Format/Info : Advanced Video Codec
Format profile : High@L4.1
Format settings, CABAC : Yes
Format settings, ReFrames : 4 frames
Codec ID : V_MPEG4/ISO/AVC
Duration : 1h 25mn
Bit rate : 5 300 Kbps
Width : 1 024 pixels
Height : 576 pixels
Display aspect ratio : 16:9
Frame rate : 60.000 fps
Color space : YUV
Chroma subsampling : 4:2:0
Bit depth : 8 bits
Scan type : Progressive
Bits/(Pixel*Frame) : 0.150
Stream size : 3.11 GiB (87%)
Title : Tiberiumsun69
Writing library : x264 core 146 r2538 121396c
Encoding settings : cabac=1 / ref=3 / deblock=1:0:0 / analyse=0x3:0x113 / me=umh / subme=9 / psy=1 / psy_rd=1.00:0.10 / mixed_ref=1 / me_range=32 / chroma_me=1 / trellis=2 / 8x8dct=1 / cqm=0 / deadzone=21,11 / fast_pskip=0 / chroma_qp_offset=-3 / threads=12 / lookahead_threads=3 / sliced_threads=0 / nr=0 / decimate=1 / interlaced=0 / bluray_compat=0 / constrained_intra=0 / bframes=16 / b_pyramid=2 / b_adapt=2 / b_bias=0 / direct=3 / weightb=1 / open_gop=0 / weightp=2 / keyint=600 / keyint_min=60 / scenecut=40 / intra_refresh=0 / rc_lookahead=40 / rc=2pass / mbtree=0 / bitrate=5300 / ratetol=1.0 / qcomp=0.60 / qpmin=0 / qpmax=69 / qpstep=4 / cplxblur=20.0 / qblur=0.5 / vbv_maxrate=14000 / vbv_bufsize=14000 / nal_hrd=none / filler=0 / ip_ratio=1.40 / pb_ratio=1.30 / aq=1:1.00
Language : English
Default : Yes
Forced : No
Audio
ID : 2
Format : AC-3
Format/Info : Audio Coding 3
Mode extension : CM (complete main)
Codec ID : A_AC3
Duration : 1h 25mn
Bit rate mode : Constant
Bit rate : 640 Kbps
Channel(s) : 6 channels
Channel positions : Front: L C R, Side: L R, LFE
Sampling rate : 48.0 KHz
Bit depth : 16 bits
Compression mode : Lossy
Stream size : 393 MiB (11%)
Title : Дубляж
Language : Russian
Default : Yes
Forced : No
Menu
00:00:00.000 : en:00:00:00.000
00:08:37.792 : en:00:08:37.792
00:15:04.667 : en:00:15:04.667
00:22:25.500 : en:00:22:25.500
00:29:11.833 : en:00:29:11.833
00:36:24.750 : en:00:36:24.750
00:44:36.917 : en:00:44:36.917
00:49:13.583 : en:00:49:13.583
00:54:01.250 : en:00:54:01.250
01:01:04.667 : en:01:01:04.667
01:06:51.917 : en:01:06:51.917
01:10:54.542 : en:01:10:54.542

[Цитировать]
DIMMM52

круть спс.

[Цитировать]
DoberMan

Огромное спасибо!!!!

[Цитировать]
MarioHard

Огромнейшее спасибо!!!
 
Показать сообщения:    

Текущее время: 10-Дек 19:39

Часовой пояс: UTC + 3


Вы не можете начинать темы
Вы не можете отвечать на сообщения
Вы не можете редактировать свои сообщения
Вы не можете удалять свои сообщения
Вы не можете голосовать в опросах
Вы не можете прикреплять файлы к сообщениям
Вы не можете скачивать файлы