1. Longevity:
    7 years 2 months
    Posts:
    2422
    Gender:
    Male
    [kp]https://www.kinopoisk.ru/film/905378/[/kp] [imdb]http://www.imdb.com/title/tt4651520/[/imdb]«Party Like a Mother»- Информация
    Название: Очень плохие мамочки
    Оригинальное название: Bad Moms
    Год выхода: 2016
    Жанр: Комедия
    Режиссер: Джон Лукас, Скотт Мур
    Сценарий: Джон Лукас, Скотт Мур
    Продюсер: Билл Блок, Сюзанн Тодд, Марк Камине
    В ролях: Мила Кунис, Кэтрин Хан, Кристен Белл, Кристина Эпплгейт, Джада Пинкетт Смит, Энни Мумоло, Уна Лоуренс, Эмджей Энтони, Дэвид Уолтон, Кларк Дьюк
    --Сюжет:
    Идеальная мать, прекрасная жена, хорошая домохозяйка с успешной карьерой… Но стоит немного расслабиться, как тебе сразу напоминают о твоих обязанностях. Почему только мужчины имеют право развлекаться? Сколько же можно это терпеть?! Пора команде отчаянных мамочек пуститься во все тяжкие.- Страна: США
    Продолжительность: 01:40:57

    Файл
    Кодек: MPEG4/ISO/AVC/H.264
    Формат: MKV
    Качество: BDRip 720p | 60 fps
    Видео: 1280 x 534 (2.397) | 59.940 fps | 8.0 Мбит/сек
    Аудио 1: AC3 | 5.1 | 48 kHz | 384 kbps | 16 bit | Дубляж - iTunes |
    Аудио 2: AC3 | 5.1 | 48 kHz | 384 kbps | 16 bit | Дубляж - iTunes |
    Аудио 3: AC3 | 5.1 | 48 kHz | 640 kbps | 16 bit | ENG |
    Субтитры: Eng

    MedifInfo

    Видео
    Идентификатор : 1
    Формат : AVC
    Формат/Информация : Advanced Video Codec
    Профиль формата : High@L4.1
    Параметр CABAC формата : Да
    Параметр ReFrames формата : 3 кадра
    Параметр GOP формата : M=3, N=72
    Идентификатор кодека : V_MPEG4/ISO/AVC
    Продолжительность : 1 ч. 40 м.
    Вид битрейта : Переменный
    Битрейт : 7784 Кбит/сек
    Максимальный битрейт : 8000 Кбит/сек
    Ширина : 1280 пикселей
    Высота : 534 пикселя
    Соотношение сторон : 2,40:1
    Режим частоты кадров : Постоянный
    Частота кадров : 59,880 кадров/сек
    Частота кадров в оригинале : 59,940 кадров/сек
    Стандарт вещания : PAL
    Цветовое пространство : YUV
    Субдискретизация насыщенности : 4:2:0
    Битовая глубина : 8 бит
    Тип развёртки : Прогрессивная
    Бит/(Пиксели*Кадры) : 0.190
    Размер потока : 5,49 Гбайт (83%)
    Заголовок : www.60-fps.org
    Язык : English
    Default : Да
    Forced : Нет
    Основные цвета : BT.601 NTSC
    Характеристики трансфера : BT.601
    Коэффициенты матрицы : BT.601
    colour_range : Limited
    Аудио #1
    Идентификатор : 2
    Формат : AC-3
    Формат/Информация : Audio Coding 3
    Расширение режима : CM (complete main)
    Параметр Endianness формата : Big
    Идентификатор кодека : A_AC3
    Продолжительность : 1 ч. 40 м.
    Вид битрейта : Постоянный
    Битрейт : 384 Кбит/сек
    Каналы : 6 каналов
    Расположение каналов : Front: L C R, Side: L R, LFE
    Частота : 48,0 КГц
    Битовая глубина : 16 бит
    Метод сжатия : С потерями
    Размер потока : 277 Мбайт (4%)
    Заголовок : Дубляж - iTunes
    Язык : Russian
    Default : Да
    Forced : Нет
    Аудио #2
    Идентификатор : 3
    Формат : AC-3
    Формат/Информация : Audio Coding 3
    Расширение режима : CM (complete main)
    Параметр Endianness формата : Big
    Идентификатор кодека : A_AC3
    Продолжительность : 1 ч. 40 м.
    Вид битрейта : Постоянный
    Битрейт : 384 Кбит/сек
    Каналы : 6 каналов
    Расположение каналов : Front: L C R, Side: L R, LFE
    Частота : 48,0 КГц
    Битовая глубина : 16 бит
    Метод сжатия : С потерями
    Размер потока : 277 Мбайт (4%)
    Заголовок : Дубляж - iTunes Украинский
    Язык : Ukrainian
    Default : Нет
    Forced : Нет
    Аудио #3
    Идентификатор : 4
    Формат : AC-3
    Формат/Информация : Audio Coding 3
    Расширение режима : CM (complete main)
    Параметр Endianness формата : Big
    Идентификатор кодека : A_AC3
    Продолжительность : 1 ч. 40 м.
    Вид битрейта : Постоянный
    Битрейт : 640 Кбит/сек
    Каналы : 6 каналов
    Расположение каналов : Front: L C R, Side: L R, LFE
    Частота : 48,0 КГц
    Битовая глубина : 16 бит
    Метод сжатия : С потерями
    Размер потока : 462 Мбайт (7%)
    Заголовок : Eng
    Язык : English
    Default : Нет
    Forced : Нет
    Текст #1
    Идентификатор : 5
    Формат : UTF-8
    Идентификатор кодека : S_TEXT/UTF8
    Идентификатор кодека/Информация : UTF-8 Plain Text
    Язык : English
    Default : Нет
    Forced : Нет
    Текст #2
    Идентификатор : 6
    Формат : UTF-8
    Идентификатор кодека : S_TEXT/UTF8
    Идентификатор кодека/Информация : UTF-8 Plain Text
    Заголовок : SDH
    Язык : English
    Default : Нет
    Forced : Нет
    Меню
    00:00:00.000 : en:00:00:00.000
    00:04:58.548 : en:00:04:58.548
    00:09:17.056 : en:00:09:17.056
    00:16:04.839 : en:00:16:04.839
    00:21:45.221 : en:00:21:45.221
    00:26:46.271 : en:00:26:46.271
    00:29:36.149 : en:00:29:36.149
    00:35:35.508 : en:00:35:35.508
    00:39:20.900 : en:00:39:20.900
    00:44:41.012 : en:00:44:41.012
    00:48:33.202 : en:00:48:33.202
    00:53:43.178 : en:00:53:43.178
    00:59:08.503 : en:00:59:08.503
    01:04:24.110 : en:01:04:24.110
    01:08:55.882 : en:01:08:55.882
    01:14:03.856 : en:01:14:03.856
    01:18:57.358 : en:01:18:57.358
    01:23:48.982 : en:01:23:48.982
    01:26:58.713 : en:01:26:58.713
    01:32:59.073 : en:01:32:59.073

    Release was prepared by 60-fps.org

  2. Longevity:
    5 years 2 months
    Posts:
    9
    Gender:
    Unknown
    Уважаемый Kryl. Печально наблюдать о забытых 1080р. Истинные поклонники качественного видео, пользуются большими и серьёзными экранами. На которых заметен слабый битрейт в динамики картинки. Не записывайте в Красную Книгу cтоль редко встречающийся Full HD.
    С Уважением, Георгий.
    29-Oct-2016 17:56 (after 30 minutes)
  3. Longevity:
    7 years 2 months
    Posts:
    2422
    Gender:
    Male
    6729Уважаемый Kryl. Печально наблюдать о забытых 1080р. Истинные поклонники качественного видео, пользуются большими и серьёзными экранами. На которых заметен слабый битрейт в динамики картинки. Не записывайте в Красную Книгу cтоль редко встречающийся Full HD.
    С Уважением, Георгий.
    Нууу , фулку я делаю если кинцо ходовое ...
    На будущее учту Вашу претензию Улыбаюсь
    29-Oct-2016 18:38 (after 41 minute)
  4. Longevity:
    5 years 3 months
    Posts:
    1724
    Gender:
    Male
    Ну комедюхи можно и в 720" посмотреть...
    Это когда чтото с эффектами,тогда ДА,покайфу фулку...
    Ну а когда есть выбор из 720 и 1080,то тогда вообще цены вам нет... ! Хитренький
    29-Oct-2016 18:56 (after 17 minutes)
  5. Longevity:
    5 years 1 month
    Posts:
    110
    Gender:
    Male
    6729Уважаемый Kryl. Печально наблюдать о забытых 1080р. Истинные поклонники качественного видео, пользуются большими и серьёзными экранами. На которых заметен слабый битрейт в динамики картинки. Не записывайте в Красную Книгу cтоль редко встречающийся Full HD.
    С Уважением, Георгий.
    Полностью согласен с Георгием...
    30-Oct-2016 19:24 (after 1 day)
  6. bot

    Longevity:
    7 years 2 months
    Posts:
    409
    Gender:
    Unknown
    Топик был перенесен из форума Новинки Кино 60 FPS в форум Зарубежные фильмы 60 FPS
    Kryl
    19-Nov-2016 09:40 (after 19 days)
  7. Longevity:
    5 years 5 months
    Posts:
    4
    Gender:
    Male
    6729Уважаемый Kryl. Печально наблюдать о забытых 1080р. Истинные поклонники качественного видео, пользуются большими и серьёзными экранами. На которых заметен слабый битрейт в динамики картинки. Не записывайте в Красную Книгу cтоль редко встречающийся Full HD.
    С Уважением, Георгий.
    Поддерживаю!!! К сожалению и боевики делают в 720р....
    20-Nov-2016 19:43 (after 21 day)
  8. Longevity:
    7 years 2 months
    Posts:
    2422
    Gender:
    Male
    6913
    6729Уважаемый Kryl. Печально наблюдать о забытых 1080р. Истинные поклонники качественного видео, пользуются большими и серьёзными экранами. На которых заметен слабый битрейт в динамики картинки. Не записывайте в Красную Книгу cтоль редко встречающийся Full HD.
    С Уважением, Георгий.
    Поддерживаю!!! К сожалению и боевики делают в 720р....
    Нету места на диске все хранить .
    20-Nov-2016 19:49 (after 6 minutes)


You cannot post new topics in this forum
You cannot reply to topics in this forum
You cannot edit your posts in this forum
You cannot delete your posts in this forum
You cannot vote in polls in this forum
You cannot attach files in this forum
You cannot download files in this forum