[Цитировать]
sir.zelyony

Обливион / Oblivion
Год выпуска: 2013 г.
Жанр: Фантастика, боевик, триллер, приключения, мелодрама
Страна: США
Режиссер: Джозеф Косински
Продолжительность: 02:04:42
Перевод: Профессиональный (дублированный)
В ролях: Том Круз, Андреа Райзборо, Ольга Куриленко, Николай Костер-Вальдау, Морган Фриман, Мелисса Лео, Зои Белл, Эбигейл Лоу, Изабель Лоу, Дэвид Мэдисон
Описание:
Земля, пережившая войну с инопланетными захватчиками, опустела; остатки человечества готовятся покинуть непригодную для жизни планету. Главный герой — техник по обслуживанию дронов — находит разбившийся корабль NASA, команда которого погибает у него на глазах. Ему удаётся спасти лишь одну женщину — и вскоре он понимает, что это перевернёт его жизнь.
-ФАЙЛ
Формат видео: MKV
Качество видео: BDRip 720p | 60fps
Видео кодек: H.264
Аудио кодек: AC3
Видео: 1280x536 (2.40:1) | 59.940 fps | 4950 kbps
Аудио 1: AC3 | 5.1 | 48.0 kHz | 640 kbps | 16 bits | Dub
Аудио 2: AC3 | 5.1 | 48.0 kHz | 640 kbps | 16 bits | Original
Cубтитры: русские, английские

Отчёт MediaInfo

General
Unique ID : 186771151439598876698578551507078998920 (0x8C82D0B98041B20AB2B5E5E5A7DDEB88)
Complete name : G:\Recode\Oblivion_2013_720p_60fps.mkv
Format : Matroska
Format version : Version 2
File size : 5.45 GiB
Duration : 2h 4mn
Overall bit rate : 6 261 Kbps
Movie name : Oblivion_2013
Encoded date : UTC 2015-09-30 12:29:53
Writing application : mkvmerge v4.3.0 ('Escape from the Island') сборка от Sep 28 2010 23:42:10
Writing library : libebml v1.0.0 + libmatroska v1.0.0
TITLE : Oblivion_2013
Video
ID : 1
Format : AVC
Format/Info : Advanced Video Codec
Format profile : High@L4.1
Format settings, CABAC : Yes
Format settings, ReFrames : 4 frames
Muxing mode : Header stripping
Codec ID : V_MPEG4/ISO/AVC
Duration : 2h 4mn
Bit rate : 4 950 Kbps
Width : 1 280 pixels
Height : 536 pixels
Display aspect ratio : 2.40:1
Frame rate mode : Constant
Frame rate : 60.000 fps
Original frame rate : 59.940 fps
Color space : YUV
Chroma subsampling : 4:2:0
Bit depth : 8 bits
Scan type : Progressive
Bits/(Pixel*Frame) : 0.120
Stream size : 4.23 GiB (78%)
Title : Oblivion_2013
Writing library : x264 core 130 r2273 b3065e6
Encoding settings : cabac=1 / ref=1 / deblock=1:0:0 / analyse=0x3:0x113 / me=hex / subme=2 / psy=1 / psy_rd=1.00:0.00 / mixed_ref=0 / me_range=16 / chroma_me=1 / trellis=0 / 8x8dct=1 / cqm=0 / deadzone=21,11 / fast_pskip=1 / chroma_qp_offset=0 / threads=3 / lookahead_threads=1 / sliced_threads=0 / nr=0 / decimate=1 / interlaced=0 / bluray_compat=0 / constrained_intra=0 / bframes=3 / b_pyramid=2 / b_adapt=1 / b_bias=0 / direct=1 / weightb=1 / open_gop=0 / weightp=1 / keyint=600 / keyint_min=60 / scenecut=40 / intra_refresh=0 / rc_lookahead=10 / rc=abr / mbtree=1 / bitrate=4950 / ratetol=1.0 / qcomp=0.60 / qpmin=0 / qpmax=69 / qpstep=4 / vbv_maxrate=62500 / vbv_bufsize=78125 / nal_hrd=none / ip_ratio=1.40 / aq=1:1.00
Language : English
Default : Yes
Forced : No
Color primaries : BT.709
Transfer characteristics : BT.709
Matrix coefficients : BT.709
Audio #1
ID : 2
Format : AC-3
Format/Info : Audio Coding 3
Mode extension : CM (complete main)
Format settings, Endianness : Big
Muxing mode : Header stripping
Codec ID : A_AC3
Duration : 2h 4mn
Bit rate mode : Constant
Bit rate : 640 Kbps
Channel count : 6 channels
Channel positions : Front: L C R, Side: L R, LFE
Sampling rate : 48.0 KHz
Bit depth : 16 bits
Compression mode : Lossy
Stream size : 571 MiB (10%)
Title : dub
Language : Russian
Default : Yes
Forced : No
Audio #2
ID : 3
Format : AC-3
Format/Info : Audio Coding 3
Mode extension : CM (complete main)
Format settings, Endianness : Big
Muxing mode : Header stripping
Codec ID : A_AC3
Duration : 2h 4mn
Bit rate mode : Constant
Bit rate : 640 Kbps
Channel count : 6 channels
Channel positions : Front: L C R, Side: L R, LFE
Sampling rate : 48.0 KHz
Bit depth : 16 bits
Compression mode : Lossy
Stream size : 571 MiB (10%)
Title : original
Language : English
Default : No
Forced : No
Text #1
ID : 4
Format : UTF-8
Codec ID : S_TEXT/UTF8
Codec ID/Info : UTF-8 Plain Text
Title : rus_forced
Language : Russian
Default : Yes
Forced : No
Text #2
ID : 5
Format : UTF-8
Codec ID : S_TEXT/UTF8
Codec ID/Info : UTF-8 Plain Text
Title : rus_full
Language : Russian
Default : No
Forced : No
Text #3
ID : 6
Format : UTF-8
Codec ID : S_TEXT/UTF8
Codec ID/Info : UTF-8 Plain Text
Title : eng_full
Language : English
Default : No
Forced : No
Menu
00:00:00.000 : en:Chapter 1
00:04:31.521 : en:Chapter 2
00:12:51.904 : en:Chapter 3
00:21:25.300 : en:Chapter 4
00:27:20.155 : en:Chapter 5
00:35:30.411 : en:Chapter 6
00:40:06.787 : en:Chapter 7
00:46:16.023 : en:Chapter 8
00:52:22.272 : en:Chapter 9
01:01:59.716 : en:Chapter 10
01:07:59.425 : en:Chapter 11
01:16:25.864 : en:Chapter 12
01:22:08.173 : en:Chapter 13
01:25:31.843 : en:Chapter 14
01:30:22.633 : en:Chapter 15
01:36:30.367 : en:Chapter 16
01:40:29.256 : en:Chapter 17
01:46:27.514 : en:Chapter 18
01:53:05.411 : en:Chapter 19



Последний раз редактировалось: sir.zelyony (2015-10-22 21:27), всего редактировалось 1 раз

[Цитировать]
dzubakr

битрейт видео не маловат?

[Цитировать]
sir.zelyony

3974битрейт видео не маловат?
для 720-ки в самый раз, если что есть семпл...

[Цитировать]
dzubakr

3975для 720-ки в самый раз, если что есть семпл...
думаю, для 720-ки 10000 в самый раз. может я конечно сильно балованный... тем более здесь 60 фпс.

[Цитировать]
vlad72

Хорошая раздача. Всё супер! Спасибо за релиз!
 
Показать сообщения:    

Текущее время: 19-Окт 19:20

Часовой пояс: UTC + 3


Вы не можете начинать темы
Вы не можете отвечать на сообщения
Вы не можете редактировать свои сообщения
Вы не можете удалять свои сообщения
Вы не можете голосовать в опросах
Вы не можете прикреплять файлы к сообщениям
Вы не можете скачивать файлы