[Цитировать]
Гость

-Название: Области тьмы
Оригинальное название: Limitless
Год выпуска: 2011
Страна: США
Жанр: фантастика, триллер, детектив
Продолжительность: 01:45:33
Перевод: Дубляж
Субтитры: русские (Полные), английские (Полные)-Режиссер: Нил Бёргер / Neil Burger-В ролях: Брэдли Купер (Eddie Morra), Роберт Де Ниро (Carl Van Loon), Эбби Корниш (Lindy), Эндрю Ховард (Gennady), Анна Фрил (Melissa), Джонни Витуорт (Vernon), Томас Арана (Man in Tan Coat), Роберт Джон Бёрк (Pierce), Даррен Голдштейн (Kevin Doyle), Нед Эйзенберг (Morris Brandt), Т.В. Карпио (Valerie), Ричард Бекинс (Hank Atwood)-Описание:
Нью-йоркский писатель Эдди, желая преодолеть чёрную полосу в жизни, принимает засекреченный препарат под названием NZT. Таблетка выводит мозг парня на работу в нереальной мощности. Этот творческий наркотик меняет всю жизнь Эдди, за короткий срок он зарабатывает кучу денег, но скоро начинает страдать от зловещих побочных эффектов препарата. А когда пытается найти других NZT-гениев, чтобы понять, как можно справиться с этим пристрастием, он узнает страшную правду...-Рейтинг

imdb.com: 7.40 (321 236)
MPAA: PG-13 - Детям до 13 лет просмотр не желателен-Автор рипа:Tiberiumsun69
-Качество: BDRip 1080p / 60 FPS
Формат: MKV
Видео кодек: AVC
Аудио кодек:AC3, DTS-HD
Видео: AVC, 1920x800, 16055 kbps, 59,940 fps
Аудио №1: русский / AC3 / 5.1 / 48 kHz / 640 kbps / 16 bit |Дубляж|
Аудио №2: английский / AC3 / 5.1 / 48 kHz / 640 kbps / 16 bit
Аудио №3: русский / DTS-HD / 5.1 / 48 kHz / 1560 kbps / 24 bit |Дубляж|
Навигация по главам: есть- -

MI

General
Unique ID : 251685577341277959513297022428842000700 (0xBD58E105F5D0B99CBF7FAC3F2F37813C)
Complete name : A:1080p 60fpsОбласть тьмы 1080p 60fps.mkv
Format : Matroska
Format version : Version 4 / Version 2
File size : 14.2 GiB
Duration : 1h 45mn
Overall bit rate mode : Variable
Overall bit rate : 19.3 Mbps
Encoded date : UTC 2014-10-09 09:50:03
Writing application : mkvmerge v6.9.1 ('Blue Panther') 64bit built on Apr 18 2014 18:23:38
Writing library : libebml v1.3.0 + libmatroska v1.4.1
Video
ID : 1
Format : AVC
Format/Info : Advanced Video Codec
Format profile : High@L4.1
Format settings, CABAC : Yes
Format settings, ReFrames : 4 frames
Codec ID : V_MPEG4/ISO/AVC
Duration : 1h 45mn
Bit rate : 16.1 Mbps
Nominal bit rate : 14.0 Mbps
Width : 1 920 pixels
Height : 800 pixels
Display aspect ratio : 2.40:1
Frame rate : 59.940 fps
Color space : YUV
Chroma subsampling : 4:2:0
Bit depth : 8 bits
Scan type : Progressive
Bits/(Pixel*Frame) : 0.174
Stream size : 11.8 GiB (83%)
Writing library : x264 core 130 r2273 b3065e6
Encoding settings : cabac=1 / ref=4 / deblock=1:-1:-1 / analyse=0x3:0 / me=umh / subme=9 / psy=1 / psy_rd=1.00:0.00 / mixed_ref=1 / me_range=42 / chroma_me=0 / trellis=2 / 8x8dct=1 / cqm=0 / deadzone=21,11 / fast_pskip=0 / chroma_qp_offset=-2 / threads=12 / lookahead_threads=1 / sliced_threads=0 / nr=0 / decimate=0 / interlaced=0 / bluray_compat=0 / constrained_intra=0 / bframes=5 / b_pyramid=2 / b_adapt=2 / b_bias=0 / direct=3 / weightb=1 / open_gop=0 / weightp=2 / keyint=250 / keyint_min=59 / scenecut=40 / intra_refresh=0 / rc_lookahead=60 / rc=2pass / mbtree=1 / bitrate=14000 / ratetol=1.0 / qcomp=0.80 / qpmin=0 / qpmax=69 / qpstep=4 / cplxblur=20.0 / qblur=0.5 / ip_ratio=1.40 / aq=1:0.80
Language : English
Default : Yes
Forced : No
Audio #1
ID : 2
Format : AC-3
Format/Info : Audio Coding 3
Mode extension : CM (complete main)
Codec ID : A_AC3
Duration : 1h 45mn
Bit rate mode : Constant
Bit rate : 640 Kbps
Channel(s) : 6 channels
Channel positions : Front: L C R, Side: L R, LFE
Sampling rate : 48.0 KHz
Bit depth : 16 bits
Compression mode : Lossy
Stream size : 483 MiB (3%)
Title : Дубляж
Language : Russian
Default : Yes
Forced : No
Audio #2
ID : 3
Format : AC-3
Format/Info : Audio Coding 3
Mode extension : CM (complete main)
Codec ID : A_AC3
Duration : 1h 45mn
Bit rate mode : Constant
Bit rate : 640 Kbps
Channel(s) : 6 channels
Channel positions : Front: L C R, Side: L R, LFE
Sampling rate : 48.0 KHz
Bit depth : 16 bits
Compression mode : Lossy
Stream size : 483 MiB (3%)
Title : Оригинал
Language : English
Default : No
Forced : No
Audio #3
ID : 4
Format : DTS
Format/Info : Digital Theater Systems
Format profile : MA / Core
Codec ID : A_DTS
Duration : 1h 45mn
Bit rate mode : Variable
Bit rate : 1 561 Kbps / 1 510 Kbps
Channel(s) : 6 channels
Channel positions : Front: L C R, Side: L R, LFE
Sampling rate : 48.0 KHz
Bit depth : 24 bits
Compression mode : Lossless / Lossy
Title : Дубляж
Language : Russian
Default : No
Forced : No
Text #1
ID : 5
Format : UTF-8
Codec ID : S_TEXT/UTF8
Codec ID/Info : UTF-8 Plain Text
Title : Полные
Language : Russian
Default : No
Forced : No
Text #2
ID : 6
Format : UTF-8
Codec ID : S_TEXT/UTF8
Codec ID/Info : UTF-8 Plain Text
Title : Полные
Language : English
Default : No
Forced : No
Menu
00:00:00.000 : en:00:00:00.000
00:03:49.104 : en:00:03:49.104
00:06:55.915 : en:00:06:55.915
00:11:05.707 : en:00:11:05.707
00:16:28.362 : en:00:16:28.362
00:20:40.072 : en:00:20:40.072
00:24:20.834 : en:00:24:20.834
00:28:55.859 : en:00:28:55.859
00:34:09.172 : en:00:34:09.172
00:38:20.173 : en:00:38:20.173
00:42:26.419 : en:00:42:26.419
00:47:03.821 : en:00:47:03.821
00:51:24.248 : en:00:51:24.248
00:54:45.532 : en:00:54:45.532
00:59:36.948 : en:00:59:36.948
01:05:59.664 : en:01:05:59.664
01:09:07.935 : en:01:09:07.935
01:12:11.952 : en:01:12:11.952
01:15:12.299 : en:01:15:12.299
01:18:52.561 : en:01:18:52.561
01:22:20.352 : en:01:22:20.352
01:27:53.643 : en:01:27:53.643
01:32:29.961 : en:01:32:29.961
01:39:01.644 : en:01:39:01.644

Скриншоты

Просьба к переливающим на другие сайты, в оформлении указывайте пожалуйста авторство рипа - Tiberiumsun69

[Цитировать]
Kryl

Вот это хороший фильмец )
 
Показать сообщения:    

Текущее время: 03-Дек 16:43

Часовой пояс: UTC + 3


Вы не можете начинать темы
Вы не можете отвечать на сообщения
Вы не можете редактировать свои сообщения
Вы не можете удалять свои сообщения
Вы не можете голосовать в опросах
Вы не можете прикреплять файлы к сообщениям
Вы не можете скачивать файлы