1. bot

    Longevity:
    7 years
    Posts:
    409
    Gender:
    Unknown
    «Секретный эксперимент. Смертельный вирус. Роковая ошибка»- Информация
    Название: Обитель зла
    Оригинальное название: Resident Evil
    Год выхода: 2002
    Жанр: ужасы, фантастика, боевик
    Режиссер: Пол У. С. Андерсон
    Сценарий: Пол У. С. Андерсон
    Продюсер: Пол У. С. Андерсон, Джереми Болт, Бернд Айхингер
    В ролях: Милла Йовович, Мишель Родригез, Эрик Мэбиус, Джеймс Пьюрфой, Мартин Крюз, Колин Сэлмон, Райан МакКласки, Оскар Пирс, Indra Ove, Анна Болт, Джозеф Мэй, Роберт Тэннион, Хайке Макатч, Джеймс Батлер, Стефен Билингтон, Фиона Глэскотт, Паскаль Алеарди, Лиз Мэй Брайс, Торстен Джерабек, Марк Логан-Блэк, Михаэлла Дикер
    --Сюжет:
    В гигантской подземной лаборатории на волю вырывается опаснейший вирус, мгновенно превращая своих жертв в прожорливых зомби. Достаточно одного их укуса или царапины страшных когтей, чтобы человек стал обезумевшим пожирателем живой плоти.
    Военные посылают в секретный комплекс, кишащий ужасными мутировавшими животными и голодными монстрами, группу спецназа, к которой присоединяются очаровательная Элис и отважный полицейский Мэтт. У них есть только три часа, чтобы уничтожить вирус до того, как он распространится по всей Земле…
    - Страна: Германия, США
    Продолжительность: 01:40:40

    Файл
    Кодек: MPEG4/ISO/AVC H.264
    Формат: MKV
    Качество: BDRip 1080p | 60 fps
    Видео: 1920х1040 | 59.940 fps | 10.0 Мбит/сек
    Аудио 1: TrueHD | 5.1 | 48 kHz | 2866 kbps | 24 bit | Дубляж |
    Аудио 2: TrueHD | 5.1 | 48 kHz | 4068 kbps | 24 bit | ENG |

    MedifInfo

    Video
    ID : 1
    Format : AVC
    Format/Info : Advanced Video Codec
    Format profile : [email protected]
    Format settings, CABAC : Yes
    Format settings, ReFrames : 4 frames
    Codec ID : V_MPEG4/ISO/AVC
    Duration : 1 h 40 min
    Bit rate : 10 000 kb/s
    Width : 1 920 pixels
    Height : 1 040 pixels
    Display aspect ratio : 1.85:1
    Frame rate mode : Constant
    Frame rate : 59.940 (59940/1000) FPS
    Color space : YUV
    Chroma subsampling : 4:2:0
    Bit depth : 8 bits
    Scan type : Progressive
    Bits/(Pixel*Frame) : 0.084
    Stream size : 7.01 GiB (75%)
    Title : GTP RESIDENT.EVIL.1.GTP.BDRip.1080p.60FPS
    Writing library : x264 core 146 r2538 121396c
    Encoding settings : cabac=1 / ref=4 / deblock=1:-1:-1 / analyse=0x3:0x113 / me=umh / subme=10 / psy=1 / psy_rd=1.00:0.25 / mixed_ref=1 / me_range=32 / chroma_me=1 / trellis=2 / 8x8dct=1 / cqm=0 / deadzone=21,11 / fast_pskip=0 / chroma_qp_offset=-4 / threads=12 / lookahead_threads=1 / sliced_threads=0 / nr=0 / decimate=1 / interlaced=0 / bluray_compat=0 / constrained_intra=0 / bframes=3 / b_pyramid=2 / b_adapt=2 / b_bias=0 / direct=3 / weightb=1 / open_gop=0 / weightp=2 / keyint=600 / keyint_min=59 / scenecut=40 / intra_refresh=0 / rc_lookahead=40 / rc=2pass / mbtree=0 / bitrate=10000 / ratetol=1.0 / qcomp=0.60 / qpmin=0 / qpmax=69 / qpstep=4 / cplxblur=20.0 / qblur=0.5 / vbv_maxrate=17000 / vbv_bufsize=17000 / nal_hrd=none / filler=0 / ip_ratio=1.40 / pb_ratio=1.30 / aq=1:1.00
    Language : English
    Default : Yes
    Forced : No
    Audio #1
    ID : 2
    Format : TrueHD
    Codec ID : A_TRUEHD
    Duration : 1 h 40 min
    Bit rate mode : Variable
    Bit rate : 2 866 kb/s
    Maximum bit rate : 4 914 kb/s
    Channel(s) : 6 channels
    Channel positions : Front: L C R, Side: L R, LFE
    Sampling rate : 48.0 kHz
    Frame rate : 1 200.000 FPS (40 spf)
    Compression mode : Lossless
    Delay relative to video : 8 s 635 ms
    Stream size : 2.01 GiB (21%)
    Title : TrueHD 5.1, 48 kHz, 24 bit, ~2866 kbps lossless (core: DD 5.1, 48 kHz, 448 kbps)
    Language : Russian
    Default : Yes
    Forced : No
    Audio #2
    ID : 3
    Format : AC-3
    Format/Info : Audio Coding 3
    Mode extension : CM (complete main)
    Format settings, Endianness : Big
    Codec ID : A_AC3
    Duration : 1 h 40 min
    Bit rate mode : Constant
    Bit rate : 448 kb/s
    Channel(s) : 6 channels
    Channel positions : Front: L C R, Side: L R, LFE
    Sampling rate : 48.0 kHz
    Frame rate : 31.250 FPS (1536 spf)
    Bit depth : 16 bits
    Compression mode : Lossy
    Delay relative to video : 8 s 635 ms
    Stream size : 322 MiB (3%)
    Title : TrueHD 5.1, 48 kHz, 24 bit, ~4068 kbps lossless (core: DD 5.1, 48 kHz, 640 kbps)
    Language : English
    Default : No
    Forced : No
  2. Longevity:
    5 years 11 months
    Posts:
    15
    Gender:
    Male
    А будет ли Пенталогия "Обитель зла" 1080р? А так спасибо и за это) Да
  3. Longevity:
    5 years 3 months
    Posts:
    4
    Gender:
    Unknown
    6974А будет ли Пенталогия "Обитель зла" 1080р? А так спасибо и за это) Да
    me too Хитренький
    01-Dec-2016 19:25 (after 5 hours)


You cannot post new topics in this forum
You cannot reply to topics in this forum
You cannot edit your posts in this forum
You cannot delete your posts in this forum
You cannot vote in polls in this forum
You cannot attach files in this forum
You cannot download files in this forum