«Обитель зла» — серия фильмов ужасов, снятых по сценарию Пола Андерсона. Серия основана на известной компьютерной игре компании Capcom Resident Evil. В главной роли Милла Йовович.
В 1997 году Constantin Film приобрела у Capcom права на создание фильма «Обитель зла». Первоначально предполагалось, что сценарий напишет Алан МакЭлрой, однако затем на горизонте возникло новое имя — написать сценарий и снять фильм было предложено Джорджу Ромеро. Но в силу некоторых обстоятельств, проект был заморожен, а Ромеро уволен. Только в конце 2000 года новый режиссер Пол Андерсон, известный в то время по фильму «Смертельная битва», написал сценарий, который представлял собой оригинальную историю, взявшую от игры лишь базовую идею про корпорацию Амбрелла и оживших мертвецов. Сценарий Андерсона был одобрен, а Милла Йовович стала главной героиней фильма. В марте 2001 года начались съемки на территории Германии, и через год фильм вышел на экраны.
Успех первого фильма ознаменовал появление второй части. Андерсон не смог стать режиссером второй части, так как уже был занят работой над боевиком «Чужой против Хищника», но он написал сценарий и стал одним из продюсеров. Режиссером стал Александр Уитт.
В 2005 году Screen Gems приобрела права на создание третьего фильма серии. Андерсон вновь вернулся в качестве сценариста и продюсера. В этот раз кандидатуру Андерсона на пост режиссера отклонили продюсеры. В итоге режиссером стал Рассел Малкэхи. Съемки проходили в Мексике. В сентябре 2007 года фильм вышел в прокат. Предполагалось, что третий фильм будет последним, позже это оказалось не так.
Четвертый фильм был анонсирован в середине 2009 года, а Андерсон стал режиссером. Съёмки велись с сентября по декабрь 2009 года и проходили одновременно на двух континентах. При съемках новой части Пол Андерсон сотрудничал с компанией Джеймса Кэмерона, используя его 3D-кинокамеру.
Бюджет фильма составил 60 миллионов долларов, что было намного выше предыдущих фильмов Андерсона.
Пятая часть фильма вышла на экраны 14 сентября 2012 года. Съемки проходили в Торонто и Онтарио с середины октября до 23 декабря 2011 года.
Изначально Андерсон планировал снимать пятую и шестую часть параллельно, но позже он решил сосредоточиться только на пятой части. В интервью, Андерсон заявил, что если пятая часть сделает хорошую кассу, то шестой фильм будет снят и это будет финал серии. Милла Йовович сообщила, что она планирует сниматься в шестой части, которая завершит вторую трилогию. Глава Sony подтвердил, что шестой фильм будет снят с Миллой Йовович в главной роли.
4 марта 2013 года было объявлено, что шестая часть запланирована на сентябрь 2014 года.

Обитель зла / Resident Evil (2002)

«From the Director of Mortal Combat and Event Horizon»- Информация
Название: Обитель зла
Оригинальное название: Resident Evil
Год выхода: 2002
Жанр: Ужасы, боевик, фантастика
Режиссер: Пол У. С. Андерсон
Сценарий: Пол У. С. Андерсон
Продюсер: Пол У. С. Андерсон, Джереми Болт, Бернд Айхингер
В ролях: Милла Йовович, Мишель Родригес, Эрик Мэбиас, Джеймс Пьюрфой, Мартин Крюз, Колин Сэлмон, Райан МакКласки, Оскар Пирс, Индра Ове, Анна Болт
--Сюжет:
В гигантской подземной лаборатории на волю вырывается опаснейший вирус, мгновенно превращая своих жертв в прожорливых зомби. Достаточно одного их укуса или царапины страшных когтей, чтобы человек стал обезумевшим пожирателем живой плоти.
Военные посылают в секретный комплекс, кишащий ужасными мутировавшими животными и голодными монстрами, группу спецназа, к которой присоединяются очаровательная Элис и отважный полицейский Мэтт. У них есть только три часа, чтобы уничтожить вирус до того, как он распространится по всей Земле…
- - Страна: Германия, США
Продолжительность: 01:40:31
-- Файл
Кодек: MPEG4/ISO/AVC H.264
Формат: MKV
Качество: BDRip-AVC
Видео: 1024x552 (1.855) | 59.940 fps | 4.9 Мбит/сек
Аудио: AC3 | 5.1 | 48 kHz | 640 kbps | 16 bit | Дубляж |

Субтитры: Русские (Полные), английские (Полные)

MediaInfo

Video
ID : 1
Format : AVC
Format/Info : Advanced Video Codec
Format profile : High@L4.1
Format settings, CABAC : Yes
Format settings, ReFrames : 4 frames
Codec ID : V_MPEG4/ISO/AVC
Duration : 1h 40mn
Bit rate : 4 975 Kbps
Width : 1 024 pixels
Height : 552 pixels
Display aspect ratio : 1.855
Frame rate : 59.940 fps
Color space : YUV
Chroma subsampling : 4:2:0
Bit depth : 8 bits
Scan type : Progressive
Bits/(Pixel*Frame) : 0.147
Stream size : 3.41 GiB (87%)
Title : Tiberiumsun69
Writing library : x264 core 146 r2538 121396c
Encoding settings : cabac=1 / ref=3 / deblock=1:0:0 / analyse=0x3:0x113 / me=umh / subme=9 / psy=1 / psy_rd=1.00:0.10 / mixed_ref=1 / me_range=32 / chroma_me=1 / trellis=2 / 8x8dct=1 / cqm=0 / deadzone=21,11 / fast_pskip=0 / chroma_qp_offset=-3 / threads=12 / lookahead_threads=3 / sliced_threads=0 / nr=0 / decimate=1 / interlaced=0 / bluray_compat=0 / constrained_intra=0 / bframes=16 / b_pyramid=2 / b_adapt=2 / b_bias=0 / direct=3 / weightb=1 / open_gop=0 / weightp=2 / keyint=600 / keyint_min=59 / scenecut=40 / intra_refresh=0 / rc_lookahead=40 / rc=2pass / mbtree=0 / bitrate=4975 / ratetol=1.0 / qcomp=0.60 / qpmin=0 / qpmax=69 / qpstep=4 / cplxblur=20.0 / qblur=0.5 / vbv_maxrate=14000 / vbv_bufsize=14000 / nal_hrd=none / filler=0 / ip_ratio=1.40 / pb_ratio=1.30 / aq=1:1.00
Language : English
Default : Yes
Forced : No
Audio
ID : 2
Format : AC-3
Format/Info : Audio Coding 3
Mode extension : CM (complete main)
Codec ID : A_AC3
Duration : 1h 40mn
Bit rate mode : Constant
Bit rate : 640 Kbps
Channel(s) : 6 channels
Channel positions : Front: L C R, Side: L R, LFE
Sampling rate : 48.0 KHz
Bit depth : 16 bits
Compression mode : Lossy
Stream size : 460 MiB (11%)
Title : Дубляж
Language : Russian
Default : Yes
Forced : No
Text #1
ID : 3
Format : UTF-8
Codec ID : S_TEXT/UTF8
Codec ID/Info : UTF-8 Plain Text
Title : Полные
Language : Russian
Default : No
Forced : No
Text #2
ID : 4
Format : UTF-8
Codec ID : S_TEXT/UTF8
Codec ID/Info : UTF-8 Plain Text
Title : Полные
Language : English
Default : No
Forced : No
Menu
00:00:00.000 : en:Start
00:08:22.585 : en:Deadly Viral Outbreak
00:11:00.409 : en:Alice
00:19:09.940 : en:The Mansion
00:23:49.010 : en:The Train
00:29:22.469 : en:Underground Station
00:37:51.227 : en:The Hive
00:41:14.555 : en:Route to the Red Queen
00:47:11.828 : en:Dining Hall B
00:52:16.591 : en:Red Queen Chamber
01:00:47.977 : en:Defense Mechanism
01:08:35.694 : en:"You Have to Get Out."
01:12:05.321 : en:A Crazed Survivor
01:18:33.667 : en:The Undead
01:24:22.348 : en:Mutant Dogs
01:30:16.160 : en:Lisa

Обитель зла 2: Апокалипсис (Extended Cut) / Resident Evil: Apocalypse (Extended Cut) (2004)

«Она прошла через катакомбы, кишащие зомби. Теперь на её пути целый город...»- Информация
Название: Обитель зла 2: Апокалипсис
Оригинальное название: Resident Evil: Apocalypse
Год выхода: 2004
Жанр: Ужасы, фантастика, боевик, триллер
Режиссер: Александр Уитт
Сценарий: Пол У. С. Андерсон
Продюсер: Пол У. С. Андерсон, Джереми Болт, Дон Кармоди
В ролях: Милла Йовович, Сиенна Гиллори, Одед Фер, Томас Кречманн, Софи Вавасо, Разаак Адоти, Джаред Харрис, Майк Еппс, Сандрин Холт, Мэттью Дж. Тейлор
--Сюжет:
Действие картины разворачивается на улицах печально известного Ракун-сити, города, контролируемого могущественной корпорацией «Амбрелла».
После бактериологической катастрофы все жители стали медленно превращаться в зомби, а те немногочисленные граждане, чей разум ещё не был до конца изъеден ужасным вирусом, доживали свои последние дни в атмосфере страха и желания скорейшей смерти…
- - Страна: Германия, Франция, Великобритания, Канада, США
Продолжительность: 01:37:47
-- Файл
Кодек: MPEG4/ISO/AVC H.264
Формат: MKV
Качество: BDRip-AVC
Видео: 1024x424 (2.40:1) | 59.940 fps | 3.9 Мбит/сек
Аудио: AC3 | 5.1 | 48 kHz | 640 kbps | 16 bit | Дубляж |

Субтитры: Русские (Форсированные), русские (Полные), английские (Полные)

MediaInfo

Video
ID : 1
Format : AVC
Format/Info : Advanced Video Codec
Format profile : High@L4.1
Format settings, CABAC : Yes
Format settings, ReFrames : 4 frames
Codec ID : V_MPEG4/ISO/AVC
Duration : 1h 37mn
Bit rate : 3 900 Kbps
Width : 1 024 pixels
Height : 424 pixels
Display aspect ratio : 2.40:1
Frame rate : 59.940 fps
Color space : YUV
Chroma subsampling : 4:2:0
Bit depth : 8 bits
Scan type : Progressive
Bits/(Pixel*Frame) : 0.150
Stream size : 2.60 GiB (84%)
Title : Tiberiumsun69
Writing library : x264 core 146 r2538 121396c
Encoding settings : cabac=1 / ref=3 / deblock=1:0:0 / analyse=0x3:0x113 / me=umh / subme=9 / psy=1 / psy_rd=1.00:0.10 / mixed_ref=1 / me_range=32 / chroma_me=1 / trellis=2 / 8x8dct=1 / cqm=0 / deadzone=21,11 / fast_pskip=0 / chroma_qp_offset=-3 / threads=12 / lookahead_threads=3 / sliced_threads=0 / nr=0 / decimate=1 / interlaced=0 / bluray_compat=0 / constrained_intra=0 / bframes=16 / b_pyramid=2 / b_adapt=2 / b_bias=0 / direct=3 / weightb=1 / open_gop=0 / weightp=2 / keyint=600 / keyint_min=59 / scenecut=40 / intra_refresh=0 / rc_lookahead=40 / rc=2pass / mbtree=0 / bitrate=3900 / ratetol=1.0 / qcomp=0.60 / qpmin=0 / qpmax=69 / qpstep=4 / cplxblur=20.0 / qblur=0.5 / vbv_maxrate=14000 / vbv_bufsize=14000 / nal_hrd=none / filler=0 / ip_ratio=1.40 / pb_ratio=1.30 / aq=1:1.00
Language : English
Default : Yes
Forced : No
Audio
ID : 2
Format : AC-3
Format/Info : Audio Coding 3
Mode extension : CM (complete main)
Codec ID : A_AC3
Duration : 1h 37mn
Bit rate mode : Constant
Bit rate : 640 Kbps
Channel(s) : 6 channels
Channel positions : Front: L C R, Side: L R, LFE
Sampling rate : 48.0 KHz
Bit depth : 16 bits
Compression mode : Lossy
Stream size : 448 MiB (14%)
Title : Дубляж + Субтитры на вставки
Language : Russian
Default : Yes
Forced : No
Text #1
ID : 3
Format : UTF-8
Codec ID : S_TEXT/UTF8
Codec ID/Info : UTF-8 Plain Text
Title : Форсированные
Language : Russian
Default : Yes
Forced : No
Text #2
ID : 4
Format : UTF-8
Codec ID : S_TEXT/UTF8
Codec ID/Info : UTF-8 Plain Text
Title : Полные
Language : Russian
Default : No
Forced : No
Text #3
ID : 5
Format : UTF-8
Codec ID : S_TEXT/UTF8
Codec ID/Info : UTF-8 Plain Text
Title : Полные
Language : English
Default : No
Forced : No
Menu
00:00:00.000 : :00:00:00.000
00:05:56.189 : :00:05:56.189
00:14:52.224 : :00:14:52.224
00:19:37.968 : :00:19:37.968
00:25:21.686 : :00:25:21.686
00:32:38.331 : :00:32:38.331
00:39:07.762 : :00:39:07.762
00:46:13.270 : :00:46:13.270
00:52:21.388 : :00:52:21.388
01:00:25.663 : :01:00:25.663
01:04:40.126 : :01:04:40.126
01:11:08.013 : :01:11:08.013
01:17:12.252 : :01:17:12.252
01:22:05.670 : :01:22:05.670
01:26:26.014 : :01:26:26.014
01:28:28.094 : :01:28:28.094

Обитель зла 3 / Resident Evil: Extinction (2007)

«На этот раз без компромиссов»- Информация
Название: Обитель зла 3
Оригинальное название: Resident Evil: Apocalypse
Год выхода: 2007
Жанр: Ужасы, фантастика, боевик, триллер
Режиссер: Рассел Малкэй
Сценарий: Пол У. С. Андерсон
Продюсер: Пол У. С. Андерсон, Джереми Болт, Бернд Айхингер
В ролях: Милла Йовович, Одед Фер, Эли Лартер, Айэйн Глен, Ашанти, Кристофер Иган, Спенсер Лок, Мэттью Мэрсден, Линден Эшби, Джейсон О'Мара
--Сюжет:
Элис, не раз уже спасавшая мир от смертельных вирусов и неминуемой гибели, вновь взялась за оружие. На этот раз ей предстоит сразиться с корпорацией «Амбрелла», работающей над реализацией зверского антигуманного проекта. Коварные политики и прагматичные ученые стремятся уничтожить людей и заменить их на более «совершенные» создания, заселив Землю неуязвимыми бессмертными клонами…- - Страна: Германия, США, Франция, Австралия, Великобритания
Продолжительность: 01:34:05
-- Файл
Кодек: MPEG4/ISO/AVC H.264
Формат: MKV
Качество: BDRip-AVC
Видео: 1024x432 (2.35:1) | 59.940 fps | 3.9 Мбит/сек
Аудио: AC3 | 5.1 | 48 kHz | 640 kbps | 16 bit | Дубляж |

Субтитры: Русские (Полные), английские (Полные)

MediaInfo

Video
ID : 1
Format : AVC
Format/Info : Advanced Video Codec
Format profile : High@L4.1
Format settings, CABAC : Yes
Format settings, ReFrames : 4 frames
Codec ID : V_MPEG4/ISO/AVC
Duration : 1h 34mn
Bit rate : 3 970 Kbps
Width : 1 024 pixels
Height : 432 pixels
Display aspect ratio : 2.35:1
Frame rate : 59.940 fps
Color space : YUV
Chroma subsampling : 4:2:0
Bit depth : 8 bits
Scan type : Progressive
Bits/(Pixel*Frame) : 0.150
Stream size : 2.55 GiB (84%)
Title : Tiberiumsun69
Writing library : x264 core 146 r2538 121396c
Encoding settings : cabac=1 / ref=3 / deblock=1:0:0 / analyse=0x3:0x113 / me=umh / subme=9 / psy=1 / psy_rd=1.00:0.10 / mixed_ref=1 / me_range=32 / chroma_me=1 / trellis=2 / 8x8dct=1 / cqm=0 / deadzone=21,11 / fast_pskip=0 / chroma_qp_offset=-3 / threads=12 / lookahead_threads=3 / sliced_threads=0 / nr=0 / decimate=1 / interlaced=0 / bluray_compat=0 / constrained_intra=0 / bframes=16 / b_pyramid=2 / b_adapt=2 / b_bias=0 / direct=3 / weightb=1 / open_gop=0 / weightp=2 / keyint=600 / keyint_min=59 / scenecut=40 / intra_refresh=0 / rc_lookahead=40 / rc=2pass / mbtree=0 / bitrate=3970 / ratetol=1.0 / qcomp=0.60 / qpmin=0 / qpmax=69 / qpstep=4 / cplxblur=20.0 / qblur=0.5 / vbv_maxrate=14000 / vbv_bufsize=14000 / nal_hrd=none / filler=0 / ip_ratio=1.40 / pb_ratio=1.30 / aq=1:1.00
Language : English
Default : Yes
Forced : No
Audio
ID : 2
Format : AC-3
Format/Info : Audio Coding 3
Mode extension : CM (complete main)
Codec ID : A_AC3
Duration : 1h 34mn
Bit rate mode : Constant
Bit rate : 640 Kbps
Channel(s) : 6 channels
Channel positions : Front: L C R, Side: L R, LFE
Sampling rate : 48.0 KHz
Bit depth : 16 bits
Compression mode : Lossy
Stream size : 431 MiB (14%)
Title : Дубляж
Language : Russian
Default : Yes
Forced : No
Text #1
ID : 3
Format : UTF-8
Codec ID : S_TEXT/UTF8
Codec ID/Info : UTF-8 Plain Text
Title : Полные
Language : Russian
Default : No
Forced : No
Text #2
ID : 4
Format : UTF-8
Codec ID : S_TEXT/UTF8
Codec ID/Info : UTF-8 Plain Text
Title : Полные
Language : English
Default : No
Forced : No
Menu
00:00:00.000 : en:00:00:00.000
00:07:32.369 : en:00:07:32.369
00:13:39.318 : en:00:13:39.318
00:18:25.438 : en:00:18:25.438
00:25:13.387 : en:00:25:13.387
00:30:07.806 : en:00:30:07.806
00:32:17.727 : en:00:32:17.727
00:38:53.498 : en:00:38:53.498
00:44:21.784 : en:00:44:21.784
00:50:56.053 : en:00:50:56.053
00:55:23.654 : en:00:55:23.654
01:01:46.161 : en:01:01:46.161
01:08:50.376 : en:01:08:50.376
01:14:42.770 : en:01:14:42.770
01:19:13.248 : en:01:19:13.248
01:24:15.550 : en:01:24:15.550

Обитель зла 4: Жизнь после смерти 3D / Resident Evil: Afterlife (2010)

«Испытайте новое измерение зла»- Информация/u]
Название: Обитель зла 4: Жизнь после смерти 3D
Оригинальное название: Resident Evil: Afterlife
Год выхода: 2010
Жанр: Ужасы, фантастика, боевик, триллер
Режиссер: Пол У. С. Андерсон
Сценарий: Пол У. С. Андерсон
Продюсер: Пол У. С. Андерсон, Джереми Болт, Дон Кармоди
В ролях: Милла Йовович, Эли Лартер, Ким Коутс, Шон Робертс, Серджо Перис-Менчета, Спенсер Лок, Борис Коджо, Вентворт Миллер, Сиенна Гиллори, Кейси Барнфилд
--Сюжет:
Элис продолжает свой путь в мире, поражённом вирусной инфекцией, превращающей людей в нежить. Героиня ищет оставшихся в живых, чтобы вывести их в безопасное место. Её смертельная битва с корпорацией Амбрелла выходит на новый уровень…- - Страна: Германия, Франция, США, Канада
Продолжительность: 01:36:52
-- Файл
Кодек: MPEG4/ISO/AVC H.264
Формат: MKV
Качество: BDRip-AVC
Видео: 1024x424 (2.40:1) | 59.940 fps | 3.9 Мбит/сек
Аудио: AC3 | 5.1 | 48 kHz | 448 kbps | 16 bit | Дубляж |

Субтитры: Русские (Полные), английские (Полные)

MediaInfo

Video
ID : 1
Format : AVC
Format/Info : Advanced Video Codec
Format profile : High@L4.1
Format settings, CABAC : Yes
Format settings, ReFrames : 4 frames
Codec ID : V_MPEG4/ISO/AVC
Duration : 1h 36mn
Bit rate : 3 900 Kbps
Width : 1 024 pixels
Height : 424 pixels
Display aspect ratio : 2.40:1
Frame rate : 59.940 fps
Color space : YUV
Chroma subsampling : 4:2:0
Bit depth : 8 bits
Scan type : Progressive
Bits/(Pixel*Frame) : 0.150
Stream size : 2.58 GiB (88%)
Title : Tiberiumsun69
Writing library : x264 core 146 r2538 121396c
Encoding settings : cabac=1 / ref=3 / deblock=1:0:0 / analyse=0x3:0x113 / me=umh / subme=9 / psy=1 / psy_rd=1.00:0.10 / mixed_ref=1 / me_range=32 / chroma_me=1 / trellis=2 / 8x8dct=1 / cqm=0 / deadzone=21,11 / fast_pskip=0 / chroma_qp_offset=-3 / threads=12 / lookahead_threads=3 / sliced_threads=0 / nr=0 / decimate=1 / interlaced=0 / bluray_compat=0 / constrained_intra=0 / bframes=16 / b_pyramid=2 / b_adapt=2 / b_bias=0 / direct=3 / weightb=1 / open_gop=0 / weightp=2 / keyint=600 / keyint_min=59 / scenecut=40 / intra_refresh=0 / rc_lookahead=40 / rc=2pass / mbtree=0 / bitrate=3900 / ratetol=1.0 / qcomp=0.60 / qpmin=0 / qpmax=69 / qpstep=4 / cplxblur=20.0 / qblur=0.5 / vbv_maxrate=14000 / vbv_bufsize=14000 / nal_hrd=none / filler=0 / ip_ratio=1.40 / pb_ratio=1.30 / aq=1:1.00
Language : English
Default : Yes
Forced : No
Audio
ID : 2
Format : AC-3
Format/Info : Audio Coding 3
Mode extension : CM (complete main)
Codec ID : A_AC3
Duration : 1h 36mn
Bit rate mode : Constant
Bit rate : 448 Kbps
Channel(s) : 6 channels
Channel positions : Front: L C R, Side: L R, LFE
Sampling rate : 48.0 KHz
Bit depth : 16 bits
Compression mode : Lossy
Stream size : 310 MiB (10%)
Title : Дубляж
Language : Russian
Default : Yes
Forced : No
Text #1
ID : 3
Format : UTF-8
Codec ID : S_TEXT/UTF8
Codec ID/Info : UTF-8 Plain Text
Title : Полные
Language : Russian
Default : No
Forced : No
Text #2
ID : 4
Format : UTF-8
Codec ID : S_TEXT/UTF8
Codec ID/Info : UTF-8 Plain Text
Title : Полные
Language : English
Default : No
Forced : No
Menu
00:00:00.000 : en:Blood Sample
00:05:39.630 : en:Earth's Demise
00:09:58.055 : en:Klkb
00:18:03.040 : en:Attack Animals
00:22:55.082 : en:Experimental Workforce
00:26:39.556 : en:Isolated
00:31:48.865 : en:Deadly Territory
00:36:24.557 : en:You Try
00:41:15.723 : en:Securing the Perimeter
00:46:09.141 : en:Storm's Coming
00:52:36.152 : en:Activation Central
00:58:00.935 : en:Desert Birds
01:04:21.691 : en:Fiery Fight
01:09:26.954 : en:Time for a Change
01:14:25.627 : en:Saying Goodbye
01:18:24.616 : en:Project Alice
01:25:49.894 : en:Making Orders
01:29:55.848 : en:En Route
01:36:49.804 : en:Deserted City

Обитель зла: Возмездие / Resident Evil: Retribution (2012)

«Evil goes global»- Информация/u]
Название: Обитель зла: Возмездие
Оригинальное название: Resident Evil: Retribution
Год выхода: 2012
Жанр: Ужасы, фантастика, боевик, триллер
Режиссер: Пол У. С. Андерсон
Сценарий: Пол У. С. Андерсон
Продюсер: Пол У. С. Андерсон, Джереми Болт, Дон Кармоди
В ролях: Милла Йовович, Сиенна Гиллори, Мишель Родригес, Ариана Энджинир, Ли Бинбин, Борис Коджо, Йохан Урб, Робин Касянов, Кевин Дюран, Офилио Портильо
--Сюжет:
Смертельный T-вирус, созданный в лабораториях корпорации «Амбрелла», продолжает захватывать Землю, превращая мировое население в легионы пожирающих плоть зомби. Последняя надежда человечества Элис внедряется в самое сердце самой тайной исследовательской базы корпорации и узнает еще больше о собственном таинственном прошлом. Не имея путей к отступлению, Элис продолжает искать виновных в глобальной катастрофе. Вызов, который она принимала в Токио, Нью-Йорке, Вашингтоне и даже в Москве, приводит ее в итоге к взрывающему сознание откровению, которое заставит ее переосмыслить все, что она полагала правдой. С помощью новых союзников и старых друзей, Элис будет сражаться за выживание и убегать из враждебного мира. Отсчет времени начат…- - Страна: Германия, Канада, США, Франция
Продолжительность: 01:35:37
-- Файл
Кодек: MPEG4/ISO/AVC H.264
Формат: MKV
Качество: BDRip-AVC
Видео: 1024x424 (2.40:1) | 59.940 fps | 3.9 Мбит/сек
Аудио: AC3 | 5.1 | 48 kHz | 640 kbps | 16 bit | Дубляж |

Субтитры: Русские (Полные), английские (Полные)

MediaInfo

Video
ID : 1
Format : AVC
Format/Info : Advanced Video Codec
Format profile : High@L4.1
Format settings, CABAC : Yes
Format settings, ReFrames : 4 frames
Codec ID : V_MPEG4/ISO/AVC
Duration : 1h 35mn
Bit rate : 3 900 Kbps
Width : 1 024 pixels
Height : 424 pixels
Display aspect ratio : 2.40:1
Frame rate : 59.940 fps
Color space : YUV
Chroma subsampling : 4:2:0
Bit depth : 8 bits
Scan type : Progressive
Bits/(Pixel*Frame) : 0.150
Stream size : 2.55 GiB (84%)
Title : Tiberiumsun69
Writing library : x264 core 146 r2538 121396c
Encoding settings : cabac=1 / ref=3 / deblock=1:0:0 / analyse=0x3:0x113 / me=umh / subme=9 / psy=1 / psy_rd=1.00:0.10 / mixed_ref=1 / me_range=32 / chroma_me=1 / trellis=2 / 8x8dct=1 / cqm=0 / deadzone=21,11 / fast_pskip=0 / chroma_qp_offset=-3 / threads=12 / lookahead_threads=3 / sliced_threads=0 / nr=0 / decimate=1 / interlaced=0 / bluray_compat=0 / constrained_intra=0 / bframes=16 / b_pyramid=2 / b_adapt=2 / b_bias=0 / direct=3 / weightb=1 / open_gop=0 / weightp=2 / keyint=600 / keyint_min=59 / scenecut=40 / intra_refresh=0 / rc_lookahead=40 / rc=2pass / mbtree=0 / bitrate=3900 / ratetol=1.0 / qcomp=0.60 / qpmin=0 / qpmax=69 / qpstep=4 / cplxblur=20.0 / qblur=0.5 / vbv_maxrate=14000 / vbv_bufsize=14000 / nal_hrd=none / filler=0 / ip_ratio=1.40 / pb_ratio=1.30 / aq=1:1.00
Language : English
Default : Yes
Forced : No
Audio
ID : 2
Format : AC-3
Format/Info : Audio Coding 3
Mode extension : CM (complete main)
Codec ID : A_AC3
Duration : 1h 35mn
Bit rate mode : Constant
Bit rate : 640 Kbps
Channel(s) : 6 channels
Channel positions : Front: L C R, Side: L R, LFE
Sampling rate : 48.0 KHz
Bit depth : 16 bits
Compression mode : Lossy
Stream size : 438 MiB (14%)
Title : Дубляж
Language : Russian
Default : Yes
Forced : No
Text #1
ID : 3
Format : UTF-8
Codec ID : S_TEXT/UTF8
Codec ID/Info : UTF-8 Plain Text
Title : Полные
Language : Russian
Default : No
Forced : No
Text #2
ID : 4
Format : UTF-8
Codec ID : S_TEXT/UTF8
Codec ID/Info : UTF-8 Plain Text
Title : Полные
Language : English
Default : No
Forced : No
Menu
00:00:00.000 : en:Chapter 01
00:07:43.045 : en:Chapter 02
00:14:32.538 : en:Chapter 03
00:21:38.839 : en:Chapter 04
00:25:39.329 : en:Chapter 05
00:29:31.186 : en:Chapter 06
00:34:16.846 : en:Chapter 07
00:39:14.769 : en:Chapter 08
00:45:29.435 : en:Chapter 09
00:50:27.441 : en:Chapter 10
00:54:42.070 : en:Chapter 11
01:00:14.861 : en:Chapter 12
01:05:38.476 : en:Chapter 13
01:11:22.903 : en:Chapter 14
01:16:15.571 : en:Chapter 15
01:21:29.384 : en:Chapter 16

[Цитировать]
dadebay

Будет ли в 1080р? Очень хотелось бы

[Цитировать]
Kryl

6070Будет ли в 1080р? Очень хотелось бы
Я не собираюсь делать Грущу
 
Показать сообщения:    

Текущее время: 08-Дек 09:03

Часовой пояс: UTC + 3


Вы не можете начинать темы
Вы не можете отвечать на сообщения
Вы не можете редактировать свои сообщения
Вы не можете удалять свои сообщения
Вы не можете голосовать в опросах
Вы не можете прикреплять файлы к сообщениям
Вы не можете скачивать файлы