[Цитировать]
mimok

Обитель проклятых / Stonehearst Asylum (Eliza Graves) (2014) BDRip 720p | 60fps«No one is what they seem»- Год выпуска: 2014
Производство: США / Sobini Films, Icon Productions
Жанр: Триллер-Режиссер: Брэд Андерсон
Продюсер: Марк Эмин, Брюс Дэвей, Мэл Гибсон
Актеры: Кейт Бекинсейл, Джим Стёрджесс, Бен Кингсли, Дэвид Тьюлис, Майкл Кейн, Брендан Глисон, Джейсон Флеминг, Софи Кеннеди Кларк, Шинейд Кьюсак, Гийом Делони-Описание фильма:
Молодой медицинский работник Эдвард устраивается работать в психиатрическую лечебницу. Вскоре становится известно об исчезновении одного из лечащих врачей психушки. Эдвард обнаруживает, что его похитили пациенты больницы, а вскоре и вся психушка оказывается захвачена ими…-Перевод: Дублированный (BD RUS)
Субтитры: Отсутствуют- -Дата мировой премьеры: 14 июня 2014, Китай Шанхайский международный кинофестиваль
Дата российской премьеры: 23 октября 2014, «UPI»
Дата выхода DVD релиза: 11 декабря 2014, «CP Дистрибуция»
Дата выхода Blu-Ray релиза: 11 декабря 2014, «CP Дистрибуция»-Продолжительность: 01:53:05
Качество видео: BDRip 720p-Видеокодек: MPEG-4 AVC/H.264
Битрейт видео: ~ 6968 Кбит/сек
Размер кадра: 1280 x 544
Аудио: AC3 5.1, 48.0 KHz, 640 Кбит/сек - Русский-

MediaInfo

Общее
Уникальный идентификатор : 204877494602746138451777644306721453353 (0x9A21F85DA0B52C12999DC2449928B529)
Полное имя : D:\Торренты\Eliza Graves 60fps.mkv
Формат : Matroska
Версия формата : Version 2
Размер файла : 6,13 Гбайт
Продолжительность : 1 ч. 53 м.
Общий поток : 7762 Кбит/сек
Название фильма : Eliza Graves / Stonehearst Asylum (2014) Blu-ray RUS 1080p
Дата кодирования : UTC 2014-12-07 16:21:04
Программа кодирования : mkvmerge v6.9.1 ('Blue Panther') 64bit built on Apr 18 2014 18:23:38
Библиотека кодирования : libebml v1.3.0 + libmatroska v1.4.1
Видео
Идентификатор : 1
Формат : AVC
Формат/Информация : Advanced Video Codec
Профиль формата : High@L4.1
Параметр CABAC формата : Да
Параметр ReFrames формата : 6 кадров
Идентификатор кодека : V_MPEG4/ISO/AVC
Продолжительность : 1 ч. 53 м.
Битрейт : 6968 Кбит/сек
Ширина : 1280 пикселей
Высота : 544 пикселя
Соотношение сторон : 2,35:1
Режим частоты кадров : Постоянный
Частота кадров : 60,000 кадров/сек
Цветовое пространство : YUV
Субдискретизация насыщенности : 4:2:0
Битовая глубина : 8 бит
Тип развёртки : Прогрессивная
Бит/(Пиксели*Кадры) : 0.167
Размер потока : 5,50 Гбайт (90%)
Заголовок : Release by mimok
Библиотека кодирования : x264 core 125 r2208 d9d2288
Настройки программы : cabac=1 / ref=6 / deblock=0:0:0 / analyse=0x3:0x133 / me=umh / subme=8 / psy=1 / psy_rd=1.00:0.15 / mixed_ref=1 / me_range=20 / chroma_me=1 / trellis=2 / 8x8dct=1 / cqm=0 / deadzone=21,11 / fast_pskip=0 / chroma_qp_offset=-3 / threads=6 / lookahead_threads=1 / sliced_threads=0 / nr=0 / decimate=0 / interlaced=0 / bluray_compat=0 / constrained_intra=0 / bframes=8 / b_pyramid=2 / b_adapt=2 / b_bias=0 / direct=1 / weightb=1 / open_gop=0 / weightp=2 / keyint=600 / keyint_min=60 / scenecut=40 / intra_refresh=0 / rc=crf / mbtree=0 / crf=17.0 / qcomp=0.63 / qpmin=10 / qpmax=51 / qpstep=4 / ip_ratio=1.40 / pb_ratio=1.30 / aq=1:1.20
Default : Да
Forced : Нет
Аудио
Идентификатор : 2
Формат : AC-3
Формат/Информация : Audio Coding 3
Расширение режима : CM (complete main)
Параметр Endianness формата : Big
Идентификатор кодека : A_AC3
Продолжительность : 1 ч. 53 м.
Вид битрейта : Постоянный
Битрейт : 640 Кбит/сек
Каналы : 6 каналов
Расположение каналов : Front: L C R, Side: L R, LFE
Частота : 48,0 КГц
Битовая глубина : 16 бит
Метод сжатия : С потерями
Размер потока : 518 Мбайт (8%)
Заголовок : Dub BD RUS
Язык : Russian
Default : Да
Forced : Нет

Скринлист

Скриншоты:
Время раздачи: 07.12.2014 до 22:00

[Цитировать]
Владимир 1965

Качаем смотрим говорим спасибо

[Цитировать]
Kryl

Кейт Бекинсейл ... можно посмотреть )

[Цитировать]
mimok

надеюсь кто скачивает глянули Время раздачи Сегодня до конца не смогу раздать, а завтра с самого утра включу.Если честно,даже не ожидал что скачивать сразу будут.

[Цитировать]
Shaqus

Млинский, тока посмотрел в HD. Эх...
 
Показать сообщения:    

Текущее время: 05-Дек 01:26

Часовой пояс: UTC + 3


Вы не можете начинать темы
Вы не можете отвечать на сообщения
Вы не можете редактировать свои сообщения
Вы не можете удалять свои сообщения
Вы не можете голосовать в опросах
Вы не можете прикреплять файлы к сообщениям
Вы не можете скачивать файлы