Властелин колец: Трилогия / The Lord of the Rings: Trilogy (2001-2003) BDRip-AVC | Extended Cut | 60 fps Пятый элемент / The Fifth Element (1997) BDRip 1080p | 60 fps Охота / The Hunt (2020) BDRip 1080p | 60 fps Принц Персии: Пески времени / Prince of Persia: The Sands of Time (2010) BDRip 1080p | 60 fps Агент Ева / Ava (2020) BDRip 1080p | 60 fps The Mortal Instruments: City of Bones / The Mortal Instruments: City of Bones (2013) BDRip 1080p | 60 fps Фантастическая четверка : Дилогия / Fantastic Four: Dilogy (2005-2007) BDRip 1080p | 60 fps Пиноккио / Pinocchio (2019) BDRip 720p | 60 fps
  1. Longevity:
    5 years 6 months
    Posts:
    97
    Gender:
    Unknown
    Информация о фильме
    Русское название: Обитель проклятых
    Оригинальное название: Stonehearst Asylum
    Год выхода: 2014
    Жанр: ужасы, триллер
    Режиссер: Брэд Андерсон
    Выпущено: США
    Продолжительность: 01:52:41
    Перевод: Дублированный
    В ролях: Кейт Бекинсейл, Джим Стёрджесс, Бен Кингсли, Дэвид Тьюлис, Майкл Кейн, Брендан Глисон, Джейсон Флеминг, Софи Кеннеди Кларк, Шинейд Кьюсак, Гийом Делони-Сюжет фильма
    Молодой и крайне симпатичный доктор Эдвард, выпускник Оксфорда, прибывает на работу в психиатрическую клинику, где его никто не ждёт. Его внимание сразу привлекает красивая леди миссис Грэйвз, оказавшаяся здесь за покушение на убийство истязавшего её мужа. Директор лечебницы применяет странные на взгляд официальной медицины методы лечения и даже водит дружбу с некоторыми пациентами. Но вскоре Эдварду предстоит понять, что это — далеко не самое необычное, что таится в стенах больницы. Эдвард пытается разъяснить эту проблему. Кто знает чем все это закончится.-Файл
    Качество: BDRip 720p (исходник Blu-ray Disc Remux)
    Видео: 1280x534, 3212 Кбит/сек, 60.000 кадр/сек, AVC, x264, High@L4.1, 2.40:1, 0.078 Бит/[Пиксели*Кадры]
    Аудио 1: AC-3, 448 Кбит/сек, 6 канала(ов), 48,0 КГц - Дублированный / Русский
    Аудио 2: AC-3, 448 Кбит/сек, 6 канала(ов), 48,0 КГц - Оригинал / Английский
    Субтитры: Русские | Полные, Английские | Полные
    Форсированные субтитры: Нет
    Чаптеры (Главы): Есть-
    Автор Рипа: Сообщество: -

    Скриншоты

    MediaInfo

    Format : Matroska
    Format version : Version 2
    File size : 3.30 GiB
    Duration : 1h 52mn
    Overall bit rate : 4 191 Kbps
    Movie name : Обитель проклятых.(2014).BDRip.720p.[envy].[60fps]
    Encoded date : UTC 2015-08-23 19:13:29
    Writing application : mkvmerge v5.8.0 ('No Sleep / Pillow') built on Sep 2 2012 15:37:04
    Writing library : libebml v1.2.3 + libmatroska v1.3.0
    Video
    ID : 1
    Format : AVC
    Format/Info : Advanced Video Codec
    Format profile : High@L4.1
    Format settings, CABAC : Yes
    Format settings, ReFrames : 9 frames
    Codec ID : V_MPEG4/ISO/AVC
    Duration : 1h 52mn
    Bit rate : 3 212 Kbps
    Width : 1 280 pixels
    Height : 534 pixels
    Display aspect ratio : 2.40:1
    Frame rate mode : Constant
    Frame rate : 60.000 fps
    Color space : YUV
    Chroma subsampling : 4:2:0
    Bit depth : 8 bits
    Scan type : Progressive
    Bits/(Pixel*Frame) : 0.078
    Stream size : 2.53 GiB (77%)
    Title : Обитель проклятых.(2014).BDRip.720p.[envy].[60fps]
    Writing library : x264 core 146 r2538 121396c
    Encoding settings : cabac=1 / ref=9 / deblock=1:0:0 / analyse=0x3:0x113 / me=umh / subme=10 / psy=1 / psy_rd=1.00:0.00 / mixed_ref=1 / me_range=24 / chroma_me=1 / trellis=2 / 8x8dct=1 / cqm=0 / deadzone=21,11 / fast_pskip=1 / chroma_qp_offset=-2 / threads=12 / lookahead_threads=1 / sliced_threads=0 / nr=0 / decimate=1 / interlaced=0 / bluray_compat=0 / constrained_intra=0 / bframes=6 / b_pyramid=2 / b_adapt=2 / b_bias=0 / direct=3 / weightb=1 / open_gop=0 / weightp=2 / keyint=250 / keyint_min=25 / scenecut=40 / intra_refresh=0 / rc_lookahead=40 / rc=crf / mbtree=0 / crf=18.0 / qcomp=0.60 / qpmin=0 / qpmax=69 / qpstep=4 / vbv_maxrate=14000 / vbv_bufsize=14000 / crf_max=0.0 / nal_hrd=none / filler=0 / ip_ratio=1.40 / pb_ratio=1.30 / aq=3:1.00
    Language : English
    Default : Yes
    Forced : No
    Audio #1
    ID : 2
    Format : AC-3
    Format/Info : Audio Coding 3
    Mode extension : CM (complete main)
    Format settings, Endianness : Big
    Codec ID : A_AC3
    Duration : 1h 52mn
    Bit rate mode : Constant
    Bit rate : 448 Kbps
    Channel(s) : 6 channels
    Channel positions : Front: L C R, Side: L R, LFE
    Sampling rate : 48.0 KHz
    Compression mode : Lossy
    Stream size : 361 MiB (11%)
    Title : Dub
    Language : Russian
    Default : Yes
    Forced : No
    Audio #2
    ID : 3
    Format : AC-3
    Format/Info : Audio Coding 3
    Mode extension : CM (complete main)
    Format settings, Endianness : Big
    Codec ID : A_AC3
    Duration : 1h 52mn
    Bit rate mode : Constant
    Bit rate : 448 Kbps
    Channel(s) : 6 channels
    Channel positions : Front: L C R, Side: L R, LFE
    Sampling rate : 48.0 KHz
    Compression mode : Lossy
    Stream size : 361 MiB (11%)
    Title : Eng
    Language : English
    Default : No
    Forced : No
    Text #1
    ID : 4
    Format : UTF-8
    Codec ID : S_TEXT/UTF8
    Codec ID/Info : UTF-8 Plain Text
    Title : Rus full
    Language : Russian
    Default : No
    Forced : No
    Text #2
    ID : 5
    Format : UTF-8
    Codec ID : S_TEXT/UTF8
    Codec ID/Info : UTF-8 Plain Text
    Title : Eng full
    Language : English
    Default : No
    Forced : No
    Menu
    00:00:00.000 : en:Chapter 01
    00:09:14.886 : en:Chapter 02
    00:17:51.361 : en:Chapter 03
    00:27:37.906 : en:Chapter 04
    00:37:54.730 : en:Chapter 05
    00:45:40.696 : en:Chapter 06
    00:54:59.921 : en:Chapter 07
    01:03:44.028 : en:Chapter 08
    01:12:48.405 : en:Chapter 09
    01:22:12.427 : en:Chapter 10
    01:30:24.252 : en:Chapter 11
    01:48:23.121 : en:Chapter 12


You cannot post new topics in this forum
You cannot reply to topics in this forum
You cannot edit your posts in this forum
You cannot delete your posts in this forum
You cannot vote in polls in this forum
You cannot attach files in this forum
You cannot download files in this forum