[Цитировать]
Kryl

О бедном гусаре замолвите слово (1980) DVDRip | 60fps-- Русское название: О бедном гусаре замолвите слово
Год выпуска: 1980
Страна: СССР / Мосфильм
Жанр: драма, мелодрама, комедия, история-Премьера:
1 января 1981 (ТВ)
Режиссер: Эльдар Рязанов
Актеры: Евгений Леонов, Олег Басилашвили, Ирина Мазуркевич, Станислав Садальский, Валентин Гафт, Георгий Бурков, Зиновий Гердт, Виктор Павлов, Борислав Брондуков, Владимир Носик, Валерий Погорельцев, Николай Кочегаров, Алексей Шмаринов, Анатолий Егоров, Наталья Гундарева, Светлана Немоляева, Лия Ахеджакова, Валентина Талызина, Григорий Шпигель, Готлиб Ронинсон, Виктор Филиппов

Описание фильма:
Вступление гусарского полка в небольшой городок всколыхнуло его жизнь. Любовь корнета Плетнёва к юной актрисе Настеньке неожиданно переплетается с интригой петербургского чиновника Мерзляева, приехавшего проверить благонадёжность гусар....
- -Продолжительность: 2:40:44 (01:19:05 + 01:21:39)
Качество видео: DVDRip-AVC
Формат: MKV
Видеокодек: MPEG-4 AVC
Битрейт видео: AVC at 4919 Кбит/сек (1.263) at 60.000 fps
Размер кадра: 720 x 570
Аудиокодек: AC-3 at 448 Кбит/сек
Аудио: 6 каналов, 48,0 КГц

MI

Программа кодирования : mkvmerge v3.4.0 ('Rapunzel') сборка от May 15 2010 09:38:20
Библиотека кодирования : libebml v0.8.0 + libmatroska v0.9.0
Видео
Идентификатор : 1
Формат : AVC
Формат/Информация : Advanced Video Codec
Профиль формата : High@L4.1
Параметр CABAC формата : Да
Параметр ReFrames формата : 8 кадров
Идентификатор кодека : V_MPEG4/ISO/AVC
Продолжительность : 1 ч. 19 м.
Битрейт : 4919 Кбит/сек
Ширина : 720 пикселей
Высота : 570 пикселей
Соотношение сторон : 5:4
Режим частоты кадров : Постоянный
Частота кадров : 60,000 кадров/сек
Цветовое пространство : YUV
Субдискретизация насыщенности : 4:2:0
Битовая глубина : 8 бит
Тип развёртки : Прогрессивная
Бит/(Пиксели*Кадры) : 0.200
Размер потока : 2,66 Гбайт (90%)
Библиотека кодирования : x264 core 129 r2245 bc13772
Настройки программы : cabac=1 / ref=8 / deblock=1:-3:-3 / analyse=0x3:0x133 / me=esa / subme=9 / psy=1 / psy_rd=1.00:0.00 / mixed_ref=1 / me_range=32 / chroma_me=1 / trellis=2 / 8x8dct=1 / cqm=0 / deadzone=21,11 / fast_pskip=1 / chroma_qp_offset=-2 / threads=12 / lookahead_threads=2 / sliced_threads=0 / nr=0 / decimate=1 / interlaced=0 / bluray_compat=0 / constrained_intra=0 / bframes=4 / b_pyramid=2 / b_adapt=2 / b_bias=1 / direct=3 / weightb=1 / open_gop=0 / weightp=2 / keyint=600 / keyint_min=60 / scenecut=40 / intra_refresh=0 / rc_lookahead=60 / rc=2pass / mbtree=1 / bitrate=4919 / ratetol=1.0 / qcomp=0.60 / qpmin=0 / qpmax=69 / qpstep=4 / cplxblur=19.0 / qblur=0.0 / ip_ratio=1.40 / aq=1:1.00
Язык : English
Default : Нет
Forced : Нет
Аудио
Идентификатор : 2
Формат : AC-3
Формат/Информация : Audio Coding 3
Расширение режима : CM (complete main)
Параметр Endianness формата : Big
Идентификатор кодека : A_AC3
Продолжительность : 1 ч. 19 м.
Вид битрейта : Постоянный
Битрейт : 448 Кбит/сек
Каналы : 6 каналов
Расположение каналов : Front: L C R, Side: L R, LFE
Частота : 48,0 КГц
Битовая глубина : 16 бит
Метод сжатия : С потерями
Задержка видео : 1 с. 53 мс.
Размер потока : 253 Мбайт (8%)
Default : Нет
Forced : Нет

[Цитировать]
mimok

С Рождеством Всех!!!

[Цитировать]
ewgesha2222

дайте раздачу)))

[Цитировать]
ewgesha2222

осталось 30% , дайте раздачу пожалуйста

[Цитировать]
Kryl

2459осталось 30% , дайте раздачу пожалуйста
На раздаче с Вашего первого сообщения !
 
Показать сообщения:    

Текущее время: 07-Дек 19:25

Часовой пояс: UTC + 3


Вы не можете начинать темы
Вы не можете отвечать на сообщения
Вы не можете редактировать свои сообщения
Вы не можете удалять свои сообщения
Вы не можете голосовать в опросах
Вы не можете прикреплять файлы к сообщениям
Вы не можете скачивать файлы