Холодное сердце 2 / Frozen II (2019) BDRip 1080p | 60 fps Камуфляж и шпионаж / Spies in Disguise (2019) BDRip 1080p | 60 fps Семейка Аддамс / The Addams Family (2019) BDRip 1080p | 60 fps Человек-паук: Через вселенные / Spider-Man: Into the Spider-Verse (2018) BDRip 1080p | 60 fps Вперёд / Onward (2019) BDRip 1080p | 60 fps Акира / Akira (1988) BDRip 1080p | 60 fps ВАЛЛ·И / WALL-E (2008) BDRip-AVC | 60 fps Эверест / Abominable (2019) BDRip 1080p | 60 fps
  1. bot

    Longevity:
    5 years 11 months
    Posts:
    410
    Gender:
    Unknown
    -Название: Ну, погоди! (сериал)
    Год выпуска: 1969
    Страна: СССР
    Жанр: мультфильм, комедия, семейный, приключения
    Продолжительность: ~00:09:00
    Перевод: Оригинальный-Режиссер: Вячеслав Котёночкин, Юрий Бутырин, Владимир Тарасов-В ролях: Клара Румянова (Заяц, озвучка), Анатолий Папанов (Волк, озвучка), Геннадий Хазанов (озвучка), Владимир Сошальский (Бегемот, озвучка), Игорь Христенко (озвучка)-Описание:
    Веселые приключения неразлучной парочки - хулигана Волка и смышленого Зайца. Любимые с детства сцены погонь, ссор и примирений, шутки и мелодии.-Рейтинг
    -Качество: BDRip-AVC 60fps
    Формат: MKV
    Видео кодек: AVC
    Аудио кодек:AC3
    Видео: AVC, 752x576 (4:3), 3260 kbps, 60 fps, 0,125 bpp
    Аудио: русский / AC3 / 1 / 48 kHz / 640 kbps / 16 bit
    Навигация по главам: есть-

    MI

    General
    Unique ID : 217095934610155673877550129072000791557 (0xA35327F7F1209C96B82475096C6CF405)
    Complete name : E:\Ну погоди BDRip-AVC 60fps R.G. HD-Films\Выпуск-02.mkv
    Format : Matroska
    Format version : Version 4 / Version 2
    File size : 273 MiB
    Duration : 9mn 34s
    Overall bit rate : 3 980 Kbps
    Movie name : Tiberiumsun69
    Encoded date : UTC 2015-07-07 13:14:48
    Writing application : mkvmerge v7.9.0 ('Birds') 64bit
    Writing library : libebml v1.3.1 + libmatroska v1.4.2
    Attachment : Yes
    Video
    ID : 1
    Format : AVC
    Format/Info : Advanced Video Codec
    Format profile : High@L4.1
    Format settings, CABAC : Yes
    Format settings, ReFrames : 4 frames
    Codec ID : V_MPEG4/ISO/AVC
    Duration : 9mn 34s
    Bit rate : 3 261 Kbps
    Width : 752 pixels
    Height : 576 pixels
    Display aspect ratio : 4:3
    Frame rate : 60.000 fps
    Color space : YUV
    Chroma subsampling : 4:2:0
    Bit depth : 8 bits
    Scan type : Progressive
    Bits/(Pixel*Frame) : 0.125
    Stream size : 223 MiB (82%)
    Language : English
    Default : Yes
    Forced : No
    Audio
    ID : 2
    Format : AC-3
    Format/Info : Audio Coding 3
    Mode extension : CM (complete main)
    Codec ID : A_AC3
    Duration : 9mn 34s
    Bit rate mode : Constant
    Bit rate : 640 Kbps
    Channel(s) : 1 channel
    Channel positions : Front: C
    Sampling rate : 48.0 KHz
    Bit depth : 16 bits
    Compression mode : Lossy
    Delay relative to video : 14ms
    Stream size : 43.9 MiB (16%)
    Title : Оригинал
    Language : Russian
    Default : No
    Forced : No
    Menu
    00:00:00.000 : en:Chapter 2
    00:09:31.670 : en:Chapter 3

    Скриншоты

  2. Longevity:
    5 years 6 months
    Posts:
    1
    Gender:
    Unknown
    Однако мне нравится 4-ый скриншот :ag:


You cannot post new topics in this forum
You cannot reply to topics in this forum
You cannot edit your posts in this forum
You cannot delete your posts in this forum
You cannot vote in polls in this forum
You cannot attach files in this forum
You cannot download files in this forum