[Цитировать]
Талямба

Фильм «Конец — это только начало» Фильм- Информация
Название: Ной
Оригинальное название: Noah
Год выхода: 2014
Жанр: драма, приключения, фэнтези
Режиссер: Даррен Аронофски
Сценарий: Даррен Аронофски, Эри Хэндел
Продюсер: Даррен Аронофски, Скотт Франклин, Арнон Милчен
В ролях: Рассел Кроу,Дженнифер Коннелли,Рэй Уинстон,Энтони Хопкинс,Эмма Уотсон,Логан Лерман,Дуглас Бут,Ник Нолти,Марк Марголис,Кевин Дюран
--Сюжет:
Библейские сюжеты давно и прочно вошли в нашу жизнь: вряд ли есть человек, не знающий о запретном плоде или о первородном грехе. Одной из наиболее известных историй, имеющих аналоги практически в любой религии и в мифологии разных народов, является история о Великом потопе — бедствии, которым Бог наказал человечество за его многочисленные грехи и покарал всех, кто не хотел жить по заветам Создателя.
Единственным праведным человеком на Земле был Ной — набожный отец семейства, которого начали посещать ужасные видения конца света. Поняв, что людей ждет неминуемая гибель, Ной принялся за строительство ковчега — гигантского корабля, который должен был защитить его семью и его самого от бушующих волн. Однако Ною пришлось бороться не только со стихией и собственными страхами, но и с вполне осязаемым человеческим злом: люди, прослышавшие о строительстве корабля и опасающиеся за свою жизнь, тоже захотели спастись. Только вот для них не было места в Ноевом ковчеге.
-- Страна: США
Продолжительность: 02:17:53

Файл
Кодек: MPEG4/ISO/AVC H.264
Формат: MKV
Качество: BDRip 720p | 59,940 fps
Видео: 1280 x 694 (1.844) | 59.880 fps | 5133 Кбит/сек
Аудио 1: AC3 | 5.1 | 48 kHz | 640 Кбит/сек | 16 bit | Дубляж |
Аудио 2: AC3 | 5.1 | 48 kHz | 640 Кбит/сек | 16 bit | Оригинал |
Субтитры: English,Russian

MedifInfo

Видео
Идентификатор : 1
Формат : AVC
Формат/Информация : Advanced Video Codec
Профиль формата : High@L4.1
Параметр CABAC формата : Да
Параметр ReFrames формата : 9 кадров
Идентификатор кодека : V_MPEG4/ISO/AVC
Продолжительность : 2 ч. 17 м.
Битрейт : 5133 Кбит/сек
Ширина : 1280 пикселей
Высота : 694 пикселя
Соотношение сторон : 1,85:1
Режим частоты кадров : Постоянный
Частота кадров : 59,940 (59940/1000) кадров/сек
Цветовое пространство : YUV
Субдискретизация насыщенности : 4:2:0
Битовая глубина : 8 бит
Тип развёртки : Прогрессивная
Бит/(Пиксели*Кадры) : 0.096
Размер потока : 4,82 Гбайт (78%)
Заголовок : Ной.(2014).BDRip.720p.[60fps]
Библиотека кодирования : x264 core 130 r2273 b3065e6
Настройки программы : cabac=1 / ref=9 / deblock=1:0:0 / analyse=0x3:0x133 / me=umh / subme=10 / psy=1 / psy_rd=1.00:0.10 / mixed_ref=1 / me_range=32 / chroma_me=1 / trellis=2 / 8x8dct=1 / cqm=0 / deadzone=21,11 / fast_pskip=0 / chroma_qp_offset=-3 / threads=12 / lookahead_threads=1 / sliced_threads=0 / nr=0 / decimate=1 / interlaced=0 / bluray_compat=0 / constrained_intra=0 / bframes=5 / b_pyramid=2 / b_adapt=2 / b_bias=0 / direct=3 / weightb=1 / open_gop=0 / weightp=2 / keyint=250 / keyint_min=25 / scenecut=40 / intra_refresh=0 / rc=2pass / mbtree=0 / bitrate=5133 / ratetol=1.0 / qcomp=0.60 / qpmin=0 / qpmax=69 / qpstep=4 / cplxblur=20.0 / qblur=0.5 / ip_ratio=1.40 / pb_ratio=1.30 / aq=2:1.00
Язык : English
Default : Да
Forced : Да
Аудио #1
Идентификатор : 2
Формат : AC-3
Формат/Информация : Audio Coding 3
Расширение режима : CM (complete main)
Параметр Endianness формата : Big
Идентификатор кодека : A_AC3
Продолжительность : 2 ч. 17 м.
Вид битрейта : Постоянный
Битрейт : 640 Кбит/сек
Каналы : 6 каналов
Расположение каналов : Front: L C R, Side: L R, LFE
Частота : 48,0 КГц
Частота кадров : 31,250 кадров/сек (1536 spf)
Битовая глубина : 16 бит
Метод сжатия : С потерями
Размер потока : 631 Мбайт (10%)
Заголовок : Dub
Язык : Russian
Default : Да
Forced : Нет
Аудио #2
Идентификатор : 3
Формат : AC-3
Формат/Информация : Audio Coding 3
Расширение режима : CM (complete main)
Параметр Endianness формата : Big
Идентификатор кодека : A_AC3
Продолжительность : 2 ч. 17 м.
Вид битрейта : Постоянный
Битрейт : 640 Кбит/сек
Каналы : 6 каналов
Расположение каналов : Front: L C R, Side: L R, LFE
Частота : 48,0 КГц
Частота кадров : 31,250 кадров/сек (1536 spf)
Битовая глубина : 16 бит
Метод сжатия : С потерями
Размер потока : 631 Мбайт (10%)
Заголовок : Eng
Язык : English
Default : Нет
Forced : Нет
Текст #1
Идентификатор : 4
Формат : UTF-8
Идентификатор кодека : S_TEXT/UTF8
Идентификатор кодека/Информация : UTF-8 Plain Text
Заголовок : forced
Язык : Russian
Default : Да
Forced : Да
Текст #2
Идентификатор : 5
Формат : UTF-8
Идентификатор кодека : S_TEXT/UTF8
Идентификатор кодека/Информация : UTF-8 Plain Text
Заголовок : full
Язык : Russian
Default : Нет
Forced : Нет
Текст #3
Идентификатор : 6
Формат : UTF-8
Идентификатор кодека : S_TEXT/UTF8
Идентификатор кодека/Информация : UTF-8 Plain Text
Заголовок : full
Язык : English
Default : Нет
Forced : Нет
Меню
00:00:00.000 : :Chapter 01
00:04:48.955 : :Chapter 02
00:08:37.266 : :Chapter 03
00:12:23.033 : :Chapter 04
00:18:43.080 : :Chapter 05
00:23:25.487 : :Chapter 06
00:32:06.424 : :Chapter 07
00:37:27.203 : :Chapter 08
00:42:50.734 : :Chapter 09
00:54:35.647 : :Chapter 10
01:01:14.962 : :Chapter 11
01:03:28.596 : :Chapter 12
01:09:33.794 : :Chapter 13
01:19:18.336 : :Chapter 14
01:21:56.536 : :Chapter 15
01:29:12.347 : :Chapter 16
01:34:02.053 : :Chapter 17
01:40:27.354 : :Chapter 18
01:49:23.098 : :Chapter 19
01:55:57.825 : :Chapter 20
02:00:37.230 : :Chapter 21
02:11:32.676 : :Chapter 22


Последний раз редактировалось: Талямба (2017-10-04 12:42), всего редактировалось 1 раз

[Цитировать]
Mazer_Kazan

Ной не ныл, и Ты не ной!

[Цитировать]
Талямба

Перезалил фильм...
 
Показать сообщения:    

Текущее время: 19-Окт 19:11

Часовой пояс: UTC + 3


Вы не можете начинать темы
Вы не можете отвечать на сообщения
Вы не можете редактировать свои сообщения
Вы не можете удалять свои сообщения
Вы не можете голосовать в опросах
Вы не можете прикреплять файлы к сообщениям
Вы не можете скачивать файлы