[Цитировать]
Гость

-Название: Ной
Оригинальное название: Noah
Год выпуска: 2014
Страна: США
Жанр: драма, приключения, фэнтези
Продолжительность: 02:17:53
Перевод: Дубляж
Субтитры: русские (Форсированные), русские (Полные), английские (Полные)-Режиссер: Даррен Аронофски / Darren Aronofsky-В ролях: Рассел Кроу (Noah), Дженнифер Коннелли (Naameh), Рэй Уинстон (Tubal-cain), Энтони Хопкинс (Methuselah), Эмма Уотсон (Ila), Логан Лерман (Ham), Дуглас Бут (Shem), Ник Нолти (Samyaza, озвучка), Марк Марголис (Magog, озвучка), Кевин Дюран (Rameel), Лео МакХью Кэрролл (Japheth), Мартон Чокаш (Lamech)-Описание:
Библейские сюжеты давно и прочно вошли в нашу жизнь: вряд ли есть человек, не знающий о запретном плоде или о первородном грехе. Одной из наиболее известных историй, имеющих аналоги практически в любой религии и в мифологии разных народов, является история о Великом потопе - бедствии, которым Бог наказал человечество за его многочисленные грехи и покарал всех, кто не хотел жить по заветам Создателя.
Единственным праведным человеком на Земле был Ной - набожный отец семейства, которого начали посещать ужасные видения конца света. Поняв, что людей ждет неминуемая гибель, Ной принялся за строительство ковчега - гигантского корабля, который должен был защитить его семью и его самого от бушующих волн. Однако Ною пришлось бороться не только со стихией и собственными страхами, но и с вполне осязаемым человеческим злом: люди, прослышавшие о строительстве корабля и опасающиеся за свою жизнь, тоже захотели спастись. Только вот для них не было места в Ноевом ковчеге.-Рейтинг

imdb.com: 6.00 (132 097)
MPAA: PG-13 - Детям до 13 лет просмотр не желателен-Автор рипа:Tiberiumsun69
-Качество: 3D BDRip 1080p / 60 FPS
Формат: MKV
Видео кодек: AVC
Аудио кодек:AC3
Видео: AVC, 1920x1040, 16000 kbps, 59,940 fps
Аудио №1: русский / AC3 / 5.1 / 48 kHz / 640 kbps / 16 bit |Дубляж|
Аудио №2: английский / AC3 / 5.1 / 48 kHz / 640 kbps / 16 bit
Навигация по главам: есть- -

MI

General
Unique ID : 208211411184446106211110700848019679656 (0x9CA40F24DE70729799F042EED63829A8)
Complete name : A:3DНой 3D 1080p 60fps.mkv
Format : Matroska
Format version : Version 4 / Version 2
File size : 16.6 GiB
Duration : 2h 17mn
Overall bit rate : 17.3 Mbps
Encoded date : UTC 2014-10-21 13:10:39
Writing application : mkvmerge v6.9.1 ('Blue Panther') 64bit built on Apr 18 2014 18:23:38
Writing library : libebml v1.3.0 + libmatroska v1.4.1
Video
ID : 1
Format : AVC
Format/Info : Advanced Video Codec
Format profile : High@L4.1
Format settings, CABAC : Yes
Format settings, ReFrames : 4 frames
Codec ID : V_MPEG4/ISO/AVC
Duration : 2h 17mn
Bit rate : 16.0 Mbps
Width : 1 920 pixels
Height : 1 040 pixels
Display aspect ratio : 16:9
Frame rate : 59.940 fps
Color space : YUV
Chroma subsampling : 4:2:0
Bit depth : 8 bits
Scan type : Progressive
Bits/(Pixel*Frame) : 0.134
Stream size : 15.1 GiB (91%)
Writing library : x264 core 130 r2273 b3065e6
Encoding settings : cabac=1 / ref=4 / deblock=1:-1:-1 / analyse=0x3:0 / me=umh / subme=9 / psy=1 / psy_rd=1.00:0.00 / mixed_ref=1 / me_range=44 / chroma_me=0 / trellis=2 / 8x8dct=1 / cqm=0 / deadzone=21,11 / fast_pskip=0 / chroma_qp_offset=-2 / threads=12 / lookahead_threads=1 / sliced_threads=0 / nr=0 / decimate=0 / interlaced=0 / bluray_compat=0 / constrained_intra=0 / bframes=5 / b_pyramid=2 / b_adapt=2 / b_bias=0 / direct=3 / weightb=1 / open_gop=0 / weightp=2 / keyint=250 / keyint_min=59 / scenecut=40 / intra_refresh=0 / rc_lookahead=60 / rc=2pass / mbtree=1 / bitrate=16000 / ratetol=1.0 / qcomp=0.80 / qpmin=0 / qpmax=69 / qpstep=4 / cplxblur=20.0 / qblur=0.5 / ip_ratio=1.40 / aq=1:0.80
Language : English
Default : Yes
Forced : No
Audio #1
ID : 2
Format : AC-3
Format/Info : Audio Coding 3
Mode extension : CM (complete main)
Codec ID : A_AC3
Duration : 2h 17mn
Bit rate mode : Constant
Bit rate : 640 Kbps
Channel(s) : 6 channels
Channel positions : Front: L C R, Side: L R, LFE
Sampling rate : 48.0 KHz
Bit depth : 16 bits
Compression mode : Lossy
Stream size : 631 MiB (4%)
Title : Дубляж
Language : Russian
Default : Yes
Forced : No
Audio #2
ID : 3
Format : AC-3
Format/Info : Audio Coding 3
Mode extension : CM (complete main)
Codec ID : A_AC3
Duration : 2h 17mn
Bit rate mode : Constant
Bit rate : 640 Kbps
Channel(s) : 6 channels
Channel positions : Front: L C R, Side: L R, LFE
Sampling rate : 48.0 KHz
Bit depth : 16 bits
Compression mode : Lossy
Stream size : 631 MiB (4%)
Title : Оригинал
Language : English
Default : No
Forced : No
Text #1
ID : 4
Format : UTF-8
Codec ID : S_TEXT/UTF8
Codec ID/Info : UTF-8 Plain Text
Title : Форсированные
Language : Russian
Default : Yes
Forced : No
Text #2
ID : 5
Format : UTF-8
Codec ID : S_TEXT/UTF8
Codec ID/Info : UTF-8 Plain Text
Title : Полные
Language : Russian
Default : No
Forced : No
Text #3
ID : 6
Format : UTF-8
Codec ID : S_TEXT/UTF8
Codec ID/Info : UTF-8 Plain Text
Title : Полные
Language : English
Default : No
Forced : No
Menu
00:00:00.000 : :00:00:00.000
00:04:48.955 : :00:04:48.955
00:08:37.267 : :00:08:37.267
00:12:23.034 : :00:12:23.034
00:18:43.080 : :00:18:43.080
00:23:25.487 : :00:23:25.487
00:32:06.424 : :00:32:06.424
00:37:27.203 : :00:37:27.203
00:42:50.735 : :00:42:50.735
00:54:35.647 : :00:54:35.647
01:01:14.963 : :01:01:14.963
01:03:28.596 : :01:03:28.596
01:09:33.795 : :01:09:33.795
01:19:18.337 : :01:19:18.337
01:21:56.537 : :01:21:56.537
01:29:12.347 : :01:29:12.347
01:34:02.053 : :01:34:02.053
01:40:27.355 : :01:40:27.355
01:49:23.098 : :01:49:23.098
01:55:57.826 : :01:55:57.826
02:00:37.230 : :02:00:37.230
02:11:32.676 : :02:11:32.676

Скриншоты

Просьба к переливающим на другие сайты, в оформлении указывайте пожалуйста авторство рипа - Tiberiumsun69

Топик был перенесен из форума Зарубежные фильмы 60fps в форум Кино в 3D 60 fps
Tiberiumsun69
 
Показать сообщения:    

Текущее время: 08-Дек 19:07

Часовой пояс: UTC + 3


Вы не можете начинать темы
Вы не можете отвечать на сообщения
Вы не можете редактировать свои сообщения
Вы не можете удалять свои сообщения
Вы не можете голосовать в опросах
Вы не можете прикреплять файлы к сообщениям
Вы не можете скачивать файлы