[Цитировать]
Kryl

--Новые Самоцветы - Мир не прост (2015) WEBRip 1080p | 60 fps
--Информация о Клипе
Исполнитель: Новые Самоцветы
Название: Мир не прост
Год выхода: 2015
Продолжительность: 00:04:05
О клипе:
Группа «Новые Самоцветы» выпустила видеоклип на знаменитую композицию «Мир не прост». Премьера ролика была приурочена к десятилетнему юбилею коллектива, возглавляемого Инной Маликовой. «Во время съемок в павильоне шел настоящий дождь! Это было волшебно», — вспоминает Инна.
Композиция представляет собой квинтэссенцию прошлого, настоящего и будущего. Над созданием нового прочтения советского хита работал музыкальный продюсер группы Александр Максимов.
-Файл
Кодек: MPEG4/ISO/AVC/ H.264
Формат: MKV
Качество: WEBRip 1080p
Видео: 1920 x 1080 (1.778) at 60.000 fps 5.0 Мбит/сек
Аудио: MP3 | 320 Кбит/сек | 44.1 KHz | 2 channels

MI

Видео
Идентификатор : 1
Формат : AVC
Формат/Информация : Advanced Video Codec
Профиль формата : High@L4.2
Параметр CABAC формата : Да
Параметр ReFrames формата : 3 кадра
Идентификатор кодека : V_MPEG4/ISO/AVC
Продолжительность : 4 м. 5 с.
Вид битрейта : Переменный
Битрейт : 4876 Кбит/сек
Максимальный битрейт : 5000 Кбит/сек
Ширина : 1920 пикселей
Высота : 1080 пикселей
Соотношение сторон : 16:9
Режим частоты кадров : Постоянный
Частота кадров : 60,000 кадров/сек
Стандарт вещания : PAL
Цветовое пространство : YUV
Субдискретизация насыщенности : 4:2:0
Битовая глубина : 8 бит
Тип развёртки : Прогрессивная
Бит/(Пиксели*Кадры) : 0.039
Размер потока : 143 Мбайт (92%)
Заголовок : www.60-fps.org
Язык : English
Default : Да
Forced : Нет
Основные цвета : BT.709
Характеристики трансфера : BT.709
Коэффициенты матрицы : BT.709
colour_range : Limited
Аудио
Идентификатор : 2
Формат : MPEG Audio
Версия формата : Version 1
Профиль формата : Layer 3
Режим : Joint stereo
Идентификатор кодека : A_MPEG/L3
Идентификатор кодека/Подсказка : MP3
Продолжительность : 4 м. 5 с.
Вид битрейта : Постоянный
Битрейт : 320 Кбит/сек
Каналы : 2 канала
Частота : 44,1 КГц
Метод сжатия : С потерями
Размер потока : 9,37 Мбайт (6%)
Заголовок : MP-3
Библиотека кодирования : LAME3.99.5
Default : Да
Forced : Нет

Релиз подготовлен 60 - fps

[60-fps.org].t1737.torrent
Торрент: Зарегистрирован [ 2016-01-23 12:35 ] · CD12F83EE7EB574BCC67C3B72EB9072E64497C2E

Скачать .torrent

Скачать

13 KB

Статус: проверено
Скачан: 36 раз
Поблагодарили:
Размер: 155 MB
 
Похожие Темы

[Цитировать]
pashatskiy

Выложите етот клип Пропаганда & TRES - Я Ухожу От Тебя, 2015
 
Показать сообщения:    

Текущее время: 24-Фев 02:24

Часовой пояс: UTC + 3


Вы не можете начинать темы
Вы не можете отвечать на сообщения
Вы не можете редактировать свои сообщения
Вы не можете удалять свои сообщения
Вы не можете голосовать в опросах
Вы не можете прикреплять файлы к сообщениям
Вы можете скачивать файлы