Агент Ева / Ava (2020) BDRip 1080p | 60 fps Властелин колец: Трилогия / The Lord of the Rings: Trilogy (2001-2003) BDRip-AVC | Extended Cut | 60 fps Пятый элемент / The Fifth Element (1997) BDRip 1080p | 60 fps Форпост / The Outpost (2020) BDRip 1080p | 60 fps Охота / The Hunt (2020) BDRip 1080p | 60 fps Вивариум / Vivarium (2019) BDRip 720p | 60 fps Ультрафиолет / Ultraviolet (2006) BDRip 1080p | 60 fps Поезд смерти / D-Railed (2018) BDRip 1080p | 60 fps
  1. Longevity:
    6 years 4 months
    Posts:
    2414
    Gender:
    Male
    «Party like your job depends on it»- Информация
    Название: Новогодний корпоратив
    Оригинальное название: Office Christmas Party
    Год выхода: 2016
    Жанр: Комедия
    Режиссер: Джош Гордон, Уилл Спек
    Сценарий: Джастин Мэйлен, Лаура Солон, Дэн Мазер
    Продюсер: Гаймон Кеседи, Дэниэл Раппапорт, Скотт Стубер
    В ролях: Джейсон Бейтмен, Оливия Манн, ТиДжей Миллер, Дженнифер Энистон, Кейт МакКиннон, Кортни Б. Вэнс, Джиллиан Белл, Роб Кордри, Ванесса Байер, Рэндолл Парк
    --Сюжет:
    Когда сестра героя, вице-президент компании, угрожает брату закрыть его филиал, он устраивает грандиозную рождественскую вечеринку, чтобы заполучить большого клиента и спасти фирму. Однако праздник выходит из-под контроля..- Страна: Китай, Гонконг, США
    Продолжительность: 01:45:08

    Файл
    Кодек: MPEG4/ISO/AVC/H.264
    Формат: MKV
    Качество: BDRip 720p | 60 fps
    Видео: 1280 x 534 (2.397) | 60.000 fps | 8.0 Мбит/сек
    Аудио 1: AC3 | 5.1 | 48 kHz | 640 kbps | 16 bit | Дубляж |
    Аудио 2: AC3 | 5.1 | 48 kHz | 640 kbps | 16 bit | ENG |
    Субтитры: Русские (forced, full), английские

    MedifInfo

    Видео
    Идентификатор : 1
    Формат : AVC
    Формат/Информация : Advanced Video Codec
    Профиль формата : [email protected]
    Параметр CABAC формата : Да
    Параметр ReFrames формата : 5 кадров
    Идентификатор кодека : V_MPEG4/ISO/AVC
    Продолжительность : 1 ч. 45 м.
    Битрейт : 7999 Кбит/сек
    Ширина : 1280 пикселей
    Высота : 534 пикселя
    Соотношение сторон : 2,40:1
    Режим частоты кадров : Постоянный
    Частота кадров : 60,000 кадров/сек
    Цветовое пространство : YUV
    Субдискретизация насыщенности : 4:2:0
    Битовая глубина : 8 бит
    Тип развёртки : Прогрессивная
    Бит/(Пиксели*Кадры) : 0.195
    Размер потока : 5,74 Гбайт (84%)
    Заголовок : www.60-fps.org
    Библиотека кодирования : x264 core 148 r2638 7599210
    Настройки программы : cabac=1 / ref=5 / deblock=1:-3:-3 / analyse=0x3:0x113 / me=umh / subme=8 / psy=1 / psy_rd=1.00:0.25 / mixed_ref=1 / me_range=32 / chroma_me=1 / trellis=1 / 8x8dct=1 / cqm=0 / deadzone=6,6 / fast_pskip=1 / chroma_qp_offset=-4 / threads=12 / lookahead_threads=2 / sliced_threads=0 / nr=0 / decimate=0 / interlaced=0 / bluray_compat=0 / constrained_intra=0 / bframes=3 / b_pyramid=2 / b_adapt=2 / b_bias=0 / direct=3 / weightb=1 / open_gop=0 / weightp=2 / keyint=600 / keyint_min=59 / scenecut=40 / intra_refresh=0 / rc_lookahead=50 / rc=2pass / mbtree=1 / bitrate=7999 / ratetol=1.0 / qcomp=0.80 / qpmin=0 / qpmax=69 / qpstep=4 / cplxblur=20.0 / qblur=0.5 / vbv_maxrate=62500 / vbv_bufsize=78125 / nal_hrd=none / filler=0 / ip_ratio=1.10 / aq=1:0.50
    Default : Да
    Forced : Нет
    Аудио #1
    Идентификатор : 2
    Формат : AC-3
    Формат/Информация : Audio Coding 3
    Расширение режима : CM (complete main)
    Параметр Endianness формата : Big
    Идентификатор кодека : A_AC3
    Продолжительность : 1 ч. 45 м.
    Вид битрейта : Постоянный
    Битрейт : 640 Кбит/сек
    Каналы : 6 каналов
    Расположение каналов : Front: L C R, Side: L R, LFE
    Частота : 48,0 КГц
    Битовая глубина : 16 бит
    Метод сжатия : С потерями
    Размер потока : 482 Мбайт (7%)
    Заголовок : Dub [License]
    Язык : Russian
    Default : Да
    Forced : Нет
    Аудио #2
    Идентификатор : 3
    Формат : AC-3
    Формат/Информация : Audio Coding 3
    Расширение режима : CM (complete main)
    Параметр Endianness формата : Big
    Идентификатор кодека : A_AC3
    Продолжительность : 1 ч. 45 м.
    Вид битрейта : Постоянный
    Битрейт : 640 Кбит/сек
    Каналы : 6 каналов
    Расположение каналов : Front: L C R, Side: L R, LFE
    Частота : 48,0 КГц
    Битовая глубина : 16 бит
    Метод сжатия : С потерями
    Размер потока : 482 Мбайт (7%)
    Заголовок : Original
    Язык : English
    Default : Нет
    Forced : Нет
    Текст #1
    Идентификатор : 4
    Формат : UTF-8
    Идентификатор кодека : S_TEXT/UTF8
    Идентификатор кодека/Информация : UTF-8 Plain Text
    Заголовок : Forced
    Язык : Russian
    Default : Да
    Forced : Нет
    Текст #2
    Идентификатор : 5
    Формат : UTF-8
    Идентификатор кодека : S_TEXT/UTF8
    Идентификатор кодека/Информация : UTF-8 Plain Text
    Заголовок : Full
    Язык : Russian
    Default : Нет
    Forced : Нет
    Текст #3
    Идентификатор : 6
    Формат : UTF-8
    Идентификатор кодека : S_TEXT/UTF8
    Идентификатор кодека/Информация : UTF-8 Plain Text
    Заголовок : Full
    Язык : English
    Default : Нет
    Forced : Нет
    Текст #4
    Идентификатор : 7
    Формат : UTF-8
    Идентификатор кодека : S_TEXT/UTF8
    Идентификатор кодека/Информация : UTF-8 Plain Text
    Заголовок : SDH
    Язык : English
    Default : Нет
    Forced : Нет
    Меню
    00:00:00.000 : en:00:00:00.000
    00:08:02.708 : en:00:08:02.708
    00:12:26.333 : en:00:12:26.333
    00:22:25.250 : en:00:22:25.250
    00:28:45.625 : en:00:28:45.625
    00:32:00.792 : en:00:32:00.792
    00:39:18.625 : en:00:39:18.625
    00:48:50.625 : en:00:48:50.625
    00:54:02.417 : en:00:54:02.417
    00:59:19.333 : en:00:59:19.333
    01:04:26.292 : en:01:04:26.292
    01:10:02.375 : en:01:10:02.375
    01:15:32.000 : en:01:15:32.000
    01:20:58.167 : en:01:20:58.167
    01:26:23.833 : en:01:26:23.833
    01:34:44.500 : en:01:34:44.500
    01:39:13.625 : en:01:39:13.625

    Release was prepared by 60-fps.org



    Last edited by Kryl on 2017-04-15 08:40; edited 1 time in total
  2. Longevity:
    5 years 5 months
    Posts:
    26
    Gender:
    Male
    Здравствуйте! Помогите скачать, скорости 0 .
    13-Apr-2017 20:30 (after 22 days)
  3. Longevity:
    6 years 4 months
    Posts:
    2414
    Gender:
    Male
    7718Здравствуйте! Помогите скачать, скорости 0 .
    ну вот , просят , а сами не качают ...
    13-Apr-2017 20:57 (after 27 minutes)
  4. Longevity:
    5 years 5 months
    Posts:
    26
    Gender:
    Male
    Вчера до 22-30 сидел на скачке. Скорость та появилась, но она та была от 100Кб - до 700Кб у меня прыгала.
    14-Apr-2017 06:42 (after 9 hours)
  5. Longevity:
    4 years 7 months
    Posts:
    6
    Gender:
    Unknown
    Kryl, Как стать VIP пользователям?
    08-May-2017 13:05 (after 24 days)
  6. Longevity:
    4 years 6 months
    Posts:
    1576
    Gender:
    Male
    Rikki, НУЖНО ПРОСТО ПРОДАНАТИТЬ ОТ 100РУБ. И ВСЁ,ТЫ В СТАТУСЕ VIP... ! Подмигиваю
    15-May-2017 19:25 (after 7 days)
  7. Longevity:
    4 years 4 months
    Posts:
    110
    Gender:
    Male
    Фильм супер.
    Улыбаюсь
    30-Jul-2017 21:34 (after 2 months 15 days)


You cannot post new topics in this forum
You cannot reply to topics in this forum
You cannot edit your posts in this forum
You cannot delete your posts in this forum
You cannot vote in polls in this forum
You cannot attach files in this forum
You cannot download files in this forum