«На этот раз пощады не будет»-- Информация о фильме
Название: Новая полицейская история
Оригинальное название: New police story
Год выхода: 2004
Жанр: боевик, триллер, драма, криминал
Режиссер: Бенни Чан
Сценарий: Солон Со, Барби Танг, Джеки Чан, ...
В ролях: Джеки Чан, Николас Це, Винни Люн, Эрик Квок, Дип ЭнДжи, Кеннет Лоу, Тони Хо, Тимми Хунг
----О фильме:
Команда инспектора Винга почти полностью уничтожена в неравной схватке с гангстерами. Чудом оставшийся в живых полицейский винит себя в смерти друзей и начинает искать забвение в алкоголе.
Новый напарник инспектора, молодой офицер помогает Вингу вернуться к жизни. Вместе они бросают вызов мафии Гонконга и вступают на путь мести, чтобы наказать убийц своих товарищей.
- - Страна: Гонконг, Китай
Продолжительность: 02:03:17
--Файл
Кодек: MPEG4/ISO/AVC H.264
Формат: MKV
Качество: BDRip 720p
Видео:
1280x550 | 59.940 fps | 6.5 Мбит/сек-- Аудио 1: AC3 | 5.1 | 48 kHz | 448 kbps | 16 bit |Дубляж|
Аудио 2: AC3 | 5.1 | 48 kHz | 640 kbps | 16 bit |английский|
Субтитры: Русские | Полные, Английские | Полные
Чаптеры (Главы): Есть

MedifInfo

Video
ID : 1
Format : AVC
Format/Info : Advanced Video Codec
Format profile : High@L4.1
Format settings, CABAC : Yes
Format settings, ReFrames : 9 frames
Codec ID : V_MPEG4/ISO/AVC
Duration : 2h 3mn
Bit rate : 6 566 Kbps
Width : 1 280 pixels
Height : 550 pixels
Display aspect ratio : 2.35:1
Frame rate mode : Constant
Frame rate : 59.880 fps
Original frame rate : 59.940 fps
Color space : YUV
Chroma subsampling : 4:2:0
Bit depth : 8 bits
Scan type : Progressive
Bits/(Pixel*Frame) : 0.156
Stream size : 5.65 GiB (84%)
Title : Новая полицейская история
Writing library : x264 core 130 r2273 b3065e6
Encoding settings : cabac=1 / ref=9 / deblock=1:0:0 / analyse=0x3:0x133 / me=umh / subme=11 / psy=1 / psy_rd=1.00:0.00 / mixed_ref=1 / me_range=32 / chroma_me=1 / trellis=2 / 8x8dct=1 / cqm=0 / deadzone=21,11 / fast_pskip=0 / chroma_qp_offset=-2 / threads=12 / lookahead_threads=1 / sliced_threads=0 / nr=0 / decimate=1 / interlaced=0 / bluray_compat=0 / constrained_intra=0 / bframes=6 / b_pyramid=2 / b_adapt=2 / b_bias=0 / direct=3 / weightb=1 / open_gop=0 / weightp=2 / keyint=250 / keyint_min=25 / scenecut=40 / intra_refresh=0 / rc=crf / mbtree=0 / crf=18.0 / qcomp=0.60 / qpmin=0 / qpmax=69 / qpstep=4 / ip_ratio=1.40 / pb_ratio=1.30 / aq=2:1.00
Language : Chinese
Default : Yes
Forced : No
Audio #1
ID : 2
Format : AC-3
Format/Info : Audio Coding 3
Mode extension : CM (complete main)
Format settings, Endianness : Big
Codec ID : A_AC3
Duration : 2h 3mn
Bit rate mode : Constant
Bit rate : 448 Kbps
Channel(s) : 6 channels
Channel positions : Front: L C R, Side: L R, LFE
Sampling rate : 48.0 KHz
Bit depth : 16 bits
Compression mode : Lossy
Stream size : 395 MiB (6%)
Title : Dub
Language : Russian
Default : Yes
Forced : No
Audio #2
ID : 3
Format : AC-3
Format/Info : Audio Coding 3
Mode extension : CM (complete main)
Format settings, Endianness : Big
Codec ID : A_AC3
Duration : 2h 3mn
Bit rate mode : Constant
Bit rate : 640 Kbps
Channel(s) : 6 channels
Channel positions : Front: L C R, Side: L R, LFE
Sampling rate : 48.0 KHz
Bit depth : 16 bits
Compression mode : Lossy
Stream size : 564 MiB (8%)
Title : Eng
Language : English
Default : No
Forced : No
Text #1
ID : 4
Format : UTF-8
Codec ID : S_TEXT/UTF8
Codec ID/Info : UTF-8 Plain Text
Title : full
Language : Russian
Default : No
Forced : No
Text #2
ID : 5
Format : UTF-8
Codec ID : S_TEXT/UTF8
Codec ID/Info : UTF-8 Plain Text
Title : full
Language : English
Default : No
Forced : No
Menu
00:00:00.000 : :Chapter 01
00:05:00.008 : :Chapter 02
00:10:00.016 : :Chapter 03
00:15:00.024 : :Chapter 04
00:20:00.032 : :Chapter 05
00:25:00.040 : :Chapter 06
00:30:00.006 : :Chapter 07
00:35:00.014 : :Chapter 08
00:40:00.022 : :Chapter 09
00:45:00.030 : :Chapter 10
00:50:00.038 : :Chapter 11
00:55:00.005 : :Chapter 12
01:00:00.013 : :Chapter 13
01:05:00.021 : :Chapter 14
01:10:00.029 : :Chapter 15
01:15:00.037 : :Chapter 16
01:20:00.003 : :Chapter 17
01:25:00.011 : :Chapter 18
01:30:00.019 : :Chapter 19
01:35:00.027 : :Chapter 20
01:40:00.035 : :Chapter 21
01:45:00.002 : :Chapter 22
01:50:00.010 : :Chapter 23
01:55:00.018 : :Chapter 24
02:00:00.026 : :Chapter 25

Релиз подготовлен 60 - fps

[Цитировать]
Fragrance

Оо 720 р)) Спс берем)
 
Показать сообщения:    

Текущее время: 18-Окт 05:01

Часовой пояс: UTC + 3


Вы не можете начинать темы
Вы не можете отвечать на сообщения
Вы не можете редактировать свои сообщения
Вы не можете удалять свои сообщения
Вы не можете голосовать в опросах
Вы не можете прикреплять файлы к сообщениям
Вы не можете скачивать файлы