1. Longevity:
    7 years
    Posts:
    2413
    Gender:
    Male
    «Умные и опасные: спасение или приговор»- Информация
    Название: Новая эра Z
    Оригинальное название: The Girl with All the Gifts
    Год выхода: 2016
    Жанр: Ужасы, триллер, драма
    Режиссер: Колм МакКарти
    Сценарий: Майк Кэри
    Продюсер: Камилль Гатин, Энгус Ламонт, Уилл Кларк
    В ролях: Джемма Артертон, Гленн Клоуз, Пэдди Консидайн, Анамария Маринка, Доминик Типпер, Сенниа Нануа, Лобна Фьютерс, Дэниэл Иган, Фисайо Акинаде, Энтони Уэльс
    --Сюжет:
    Война миров не закончилась. Планету поразил страшный вирус. На людей стали нападать инфицированные особи, поставив человечество на грань исчезновения. Единственная надежда — второе поколение зараженных, опасных, но обладающих феноменальным, более высоким, чем у людей, интеллектом. Они — ключ к созданию спасительной вакцины. Поэтому их держат в специальном бункере, оберегая от контактов с внешним миром. Но однажды ситуация выходит из-под контроля.- Страна: США, Великобритания
    Продолжительность: 01:50:55

    Файл
    Кодек: MPEG4/ISO/AVC/H.264
    Формат: MKV
    Качество: BDRip 720p | 60 fps
    Видео: 1280 x 638 (2.006) | 59.940 fps | 10.0 Мбит/сек
    Аудио 1: AC3 | 5.1 | 48 kHz | 384 kbps | 16 bit | Дубляж - КиноПремиум HD |
    Аудио 2: AC3 | 5.1 | 48 kHz | 384 kbps | 16 bit | Eng |

    MedifInfo

    Видео
    Идентификатор : 1
    Формат : AVC
    Формат/Информация : Advanced Video Codec
    Профиль формата : [email protected]
    Параметр CABAC формата : Да
    Параметр ReFrames формата : 3 кадра
    Параметр GOP формата : M=3, N=72
    Идентификатор кодека : V_MPEG4/ISO/AVC
    Продолжительность : 1 ч. 50 м.
    Вид битрейта : Переменный
    Битрейт : 9744 Кбит/сек
    Максимальный битрейт : 10000 Кбит/сек
    Ширина : 1280 пикселей
    Высота : 638 пикселей
    Соотношение сторон : 2,006
    Режим частоты кадров : Постоянный
    Частота кадров : 59,880 кадров/сек
    Частота кадров в оригинале : 59,940 кадров/сек
    Стандарт вещания : PAL
    Цветовое пространство : YUV
    Субдискретизация насыщенности : 4:2:0
    Битовая глубина : 8 бит
    Тип развёртки : Прогрессивная
    Бит/(Пиксели*Кадры) : 0.199
    Размер потока : 7,55 Гбайт (91%)
    Заголовок : www.60-fps.org
    Язык : English
    Default : Да
    Forced : Нет
    Основные цвета : BT.709
    Характеристики трансфера : BT.709
    Коэффициенты матрицы : BT.709
    colour_range : Limited
    Аудио #1
    Идентификатор : 2
    Формат : AC-3
    Формат/Информация : Audio Coding 3
    Расширение режима : CM (complete main)
    Параметр Endianness формата : Big
    Идентификатор кодека : A_AC3
    Продолжительность : 1 ч. 50 м.
    Вид битрейта : Постоянный
    Битрейт : 384 Кбит/сек
    Каналы : 6 каналов
    Расположение каналов : Front: L C R, Side: L R, LFE
    Частота : 48,0 КГц
    Битовая глубина : 16 бит
    Метод сжатия : С потерями
    Размер потока : 305 Мбайт (4%)
    Заголовок : Дубляж - КиноПремиум HD
    Язык : Russian
    Default : Да
    Forced : Нет
    Аудио #2
    Идентификатор : 3
    Формат : AC-3
    Формат/Информация : Audio Coding 3
    Расширение режима : CM (complete main)
    Параметр Endianness формата : Big
    Идентификатор кодека : A_AC3
    Продолжительность : 1 ч. 50 м.
    Вид битрейта : Постоянный
    Битрейт : 384 Кбит/сек
    Каналы : 6 каналов
    Расположение каналов : Front: L C R, Side: L R, LFE
    Частота : 48,0 КГц
    Битовая глубина : 16 бит
    Метод сжатия : С потерями
    Размер потока : 305 Мбайт (4%)
    Заголовок : eng
    Язык : English
    Default : Нет
    Forced : Нет
    Меню
    00:00:00.000 : en:00:00:00.000
    00:09:22.312 : en:00:09:22.312
    00:17:59.537 : en:00:17:59.537
    00:31:09.826 : en:00:31:09.826
    00:41:11.636 : en:00:41:11.636
    00:48:34.453 : en:00:48:34.453
    00:58:38.807 : en:00:58:38.807
    01:07:45.561 : en:01:07:45.561
    01:18:03.137 : en:01:18:03.137
    01:25:42.679 : en:01:25:42.679
    01:36:59.772 : en:01:36:59.772
    01:45:52.930 : en:01:45:52.930

    Release was prepared by 60-fps.org



    Last edited by Kryl on 2017-01-21 20:28; edited 1 time in total


You cannot post new topics in this forum
You cannot reply to topics in this forum
You cannot edit your posts in this forum
You cannot delete your posts in this forum
You cannot vote in polls in this forum
You cannot attach files in this forum
You cannot download files in this forum