[Цитировать]
mimok

Ночь страха / Fright Night (2011) BDRip 720p | 60fps«Сумерки кончились. Рассвет не скоро»- Информация о фильме
Название: Ночь страха
Оригинальное название: Fright Night
Год выхода: 2011
Жанр: Ужасы, триллер, комедия
Режиссер: Крэйг Гиллеспи
Продюсер: Майкл Де Лука, Элисон Р. Розензвеиг, Рэй Анджелик
В ролях: Колин Фаррелл, Антон Ельчин, Тони Коллетт, Дэвид Теннант, Имоджен Путс, Кристофер Минц-Плассе, Дэйв Франко, Рейд Юинг, Уилл Дентон, Сандра Вергара
Описание фильма:
Выпускник школы Чарли Брюстер находится на пике своей ученической карьеры: он популярен среди сверстников и встречается с самой очаровательной девушкой во всей школе. Он становится настолько крут, что начинает избегать своего когда-то лучшего друга Эда. Неприятности для Чарли начинаются, когда по соседству прописывается Джерри. На первый взгляд он кажется хорошим парнем, но все же что-то с ним не так, хотя никто этого не замечает...
Страна: США
Студия: DreamWorks SKG, Reliance Big Entertainment
Продолжительность: 01:45:58
Перевод: Дублированный (Лицензия)
Субтитры: Вшитые, отключаемые
Язык субтитров: Русский (Full), Английский (Full)

Дата мировой премьеры: 14 августа 2011
Дата российской премьеры: 22 сентября 2011, «WDSSPR»
Дата выхода DVD релиза: 13 декабря 2011, «Уолт Дисней Компани СНГ»
Дата выхода Blu-Ray релиза: 13 декабря 2011, «Уолт Дисней Компани СНГ»
Файл
Формат: MKV
Кодек: MPEG-4 AVC/H.264
Качество: BDRip 720p
Видео: ~ 4316 Кбит/сек, 1280 x 720, 59.940 кадров/сек
Аудио: AC3 5.1, 48.0 KHz, 640 Кбит/сек - Русский

MediaInfo

Общее
Уникальный идентификатор : 229524994131667227750428320533881715478 (0xACACE7EA43CE9471BC0F03AC19DE7B16)
Полное имя : D:\Торренты\Fright Night 60fps.mkv
Формат : Matroska
Версия формата : Version 2
Размер файла : 3,74 Гбайт
Продолжительность : 1 ч. 45 м.
Общий поток : 5056 Кбит/сек
Название фильма : Fright Night (2011) Blu-ray 3D
Дата кодирования : UTC 2015-03-01 16:51:35
Программа кодирования : mkvmerge v6.9.1 ('Blue Panther') 64bit built on Apr 18 2014 18:23:38
Библиотека кодирования : libebml v1.3.0 + libmatroska v1.4.1
Видео
Идентификатор : 1
Формат : AVC
Формат/Информация : Advanced Video Codec
Профиль формата : High@L4.1
Параметр CABAC формата : Да
Параметр ReFrames формата : 6 кадров
Идентификатор кодека : V_MPEG4/ISO/AVC
Продолжительность : 1 ч. 45 м.
Битрейт : 4316 Кбит/сек
Ширина : 1280 пикселей
Высота : 720 пикселей
Соотношение сторон : 16:9
Режим частоты кадров : Постоянный
Частота кадров : 59,880 кадров/сек
Частота кадров в оригинале : 59,940 кадров/сек
Цветовое пространство : YUV
Субдискретизация насыщенности : 4:2:0
Битовая глубина : 8 бит
Тип развёртки : Прогрессивная
Бит/(Пиксели*Кадры) : 0.078
Размер потока : 3,19 Гбайт (85%)
Заголовок : Release by mimok
Библиотека кодирования : x264 core 130 r2273 b3065e6
Настройки программы : cabac=1 / ref=6 / deblock=1:-2:-3 / analyse=0x3:0x133 / me=umh / subme=8 / psy=1 / psy_rd=1.00:0.15 / mixed_ref=1 / me_range=20 / chroma_me=1 / trellis=2 / 8x8dct=1 / cqm=0 / deadzone=21,11 / fast_pskip=0 / chroma_qp_offset=-3 / threads=6 / lookahead_threads=2 / sliced_threads=0 / nr=0 / decimate=0 / interlaced=0 / bluray_compat=0 / constrained_intra=0 / bframes=8 / b_pyramid=2 / b_adapt=2 / b_bias=0 / direct=1 / weightb=1 / open_gop=0 / weightp=2 / keyint=250 / keyint_min=25 / scenecut=40 / intra_refresh=0 / rc=crf / mbtree=0 / crf=18.0 / qcomp=0.63 / qpmin=10 / qpmax=51 / qpstep=4 / ip_ratio=1.40 / pb_ratio=1.30 / aq=1:1.20
Default : Да
Forced : Нет
Аудио
Идентификатор : 2
Формат : AC-3
Формат/Информация : Audio Coding 3
Расширение режима : CM (complete main)
Параметр Endianness формата : Big
Идентификатор кодека : A_AC3
Продолжительность : 1 ч. 45 м.
Вид битрейта : Постоянный
Битрейт : 640 Кбит/сек
Каналы : 6 каналов
Расположение каналов : Front: L C R, Side: L R, LFE
Частота : 48,0 КГц
Битовая глубина : 16 бит
Метод сжатия : С потерями
Размер потока : 485 Мбайт (13%)
Заголовок : Dub
Язык : Russian
Default : Да
Forced : Нет
Текст #1
Идентификатор : 3
Формат : UTF-8
Идентификатор кодека : S_TEXT/UTF8
Идентификатор кодека/Информация : UTF-8 Plain Text
Заголовок : Full
Язык : Russian
Default : Да
Forced : Нет
Текст #2
Идентификатор : 4
Формат : UTF-8
Идентификатор кодека : S_TEXT/UTF8
Идентификатор кодека/Информация : UTF-8 Plain Text
Заголовок : SDH
Язык : English
Default : Нет
Forced : Нет

Скринлист

Скриншоты:

Релиз подготовлен 60 - fps

[Цитировать]
Fragrance

супер
 
Показать сообщения:    

Текущее время: 02-Дек 21:10

Часовой пояс: UTC + 3


Вы не можете начинать темы
Вы не можете отвечать на сообщения
Вы не можете редактировать свои сообщения
Вы не можете удалять свои сообщения
Вы не можете голосовать в опросах
Вы не можете прикреплять файлы к сообщениям
Вы не можете скачивать файлы