[Цитировать]
Kryl

Никто не выжил / No One Lives (2012) BDRip 1080p | 60 FPS-- Информация о фильме
Название: Никто не выжил
Оригинальное название: No One Lives
Год выхода: 2012
Жанр: Ужасы, триллер
Режиссер: Рюхэй Китамура

О фильме:
Безжалостные преступники спрятали в заброшенном доме двух заложников, юношу и девушку. Однако через некоторое время головорезы находят заложницу мертвой и неожиданно понимают, что юноша не так прост, как казался на первый взгляд. И теперь это он на них охотится…

Страна: США
Студия: Constance Media, Milk & Media
Продолжительность: 01:27:32
Перевод: Дублированный [лицензия]

Файл
Кодек: MPEG4/ISO/AVCH.264
Формат: MKV
Качество: BDRip
Видео: 1920 x 800 (2.400) at 60.000 fps / Matroska at 20 Мбит/сек
Аудио: AC-3 at 640 Kbps, 6 channels, 48.0 KHz

MI

Video
ID : 1
Format : AVC
Format/Info : Advanced Video Codec
Format profile : High@L4.1
Format settings, CABAC : Yes
Format settings, ReFrames : 5 frames
Codec ID : V_MPEG4/ISO/AVC
Duration : 1h 27mn
Bit rate : 20.0 Mbps
Width : 1 920 pixels
Height : 800 pixels
Display aspect ratio : 2.40:1
Frame rate mode : Constant
Frame rate : 60.000 fps
Color space : YUV
Chroma subsampling : 4:2:0
Bit depth : 8 bits
Scan type : Progressive
Bits/(Pixel*Frame) : 0.217
Stream size : 12.0 GiB (95%)
Title : релиз от kryl1979
Writing library : x264 core 133 r2334 a3ac64b
Encoding settings : cabac=1 / ref=5 / deblock=1:-3:-3 / analyse=0x3:0x133 / me=esa / subme=9 / psy=1 / psy_rd=1.00:0.00 / mixed_ref=1 / me_range=32 / chroma_me=1 / trellis=2 / 8x8dct=1 / cqm=0 / deadzone=21,11 / fast_pskip=1 / chroma_qp_offset=-2 / threads=12 / lookahead_threads=1 / sliced_threads=0 / nr=0 / decimate=1 / interlaced=0 / bluray_compat=0 / constrained_intra=0 / bframes=3 / b_pyramid=2 / b_adapt=2 / b_bias=0 / direct=3 / weightb=1 / open_gop=0 / weightp=2 / keyint=600 / keyint_min=59 / scenecut=40 / intra_refresh=0 / rc_lookahead=60 / rc=2pass / mbtree=1 / bitrate=20007 / ratetol=1.0 / qcomp=0.60 / qpmin=0 / qpmax=69 / qpstep=4 / cplxblur=20.0 / qblur=0.5 / vbv_maxrate=62500 / vbv_bufsize=78125 / nal_hrd=none / ip_ratio=1.40 / aq=1:1.00
Language : English
Default : No
Forced : No
Audio
ID : 2
Format : AC-3
Format/Info : Audio Coding 3
Mode extension : CM (complete main)
Format settings, Endianness : Big
Codec ID : A_AC3
Duration : 1h 27mn
Bit rate mode : Constant
Bit rate : 640 Kbps
Channel(s) : 6 channels
Channel positions : Front: L C R, Side: L R, LFE
Sampling rate : 48.0 KHz
Bit depth : 16 bits
Compression mode : Lossy
Stream size : 401 MiB (3%)
Title : Дубляж (лицензия)
Default : Yes
Forced : No
 
Показать сообщения:    

Текущее время: 08-Дек 19:06

Часовой пояс: UTC + 3


Вы не можете начинать темы
Вы не можете отвечать на сообщения
Вы не можете редактировать свои сообщения
Вы не можете удалять свои сообщения
Вы не можете голосовать в опросах
Вы не можете прикреплять файлы к сообщениям
Вы не можете скачивать файлы