«Win or Lose... Everyone Has Their Fight»- Информация
Название: Никогда Не Сдавайся
Оригинальное название: Never Back Down
Год выхода: 2008
Жанр: боевик, драма, спорт
Режиссер: Джефф Уодлоу
Сценарий: Крис Хоти
Продюсер: Крэйг Баумгартен, Дэвид Зелон, Билл Баннерман
В ролях: Шон Фэрис, Эмбер Хёрд, Кэм Жиганде, Ивэн Питерс, Лесли Хоуп, Джимон Хунсу, Виатт Смит, Эффион Крокетт, Нил Браун мл., Лоурен Лич
--Сюжет:
Джейк Тайлер вместе со всей своей семьей переезжает в Орландо, чтобы поддержать стремление младшего брата добиться успехов в профессиональной теннисной карьере. Джейк, который в родном городе был звездой футбольной команды, на новом месте превращается в изгоя. Пытаясь как-то адаптироваться в новом обществе, Джейк принимает приглашение очаровательной одноклассницы Байи на вечеринку. Там он вопреки своим желаниям ввязывается в драку с местным задирой Райаном, в результате которой оказывается побитым и униженным.
После боя один из одноклассников Джейка рассказывает ему о спорте, в котором смешались многочисленные виды боевых искусств, известные человечеству, и позже знакомит его с тренером Жаном Рокуа. Рокуа становится наставником Джейка, но при одном условии — никогда не использовать силу в своих личных целях…
- - Страна: США
Продолжительность: 01:53:25

Файл
Кодек: MPEG4/ISO/AVC H.264
Формат: MKV
Качество: BDRip 720p | 60 fps
Видео: 1280x532 | 59.940 fps | 5.7 Мбит/сек
Аудио 1: AC3 | 5.1 | 48 kHz | 448 kbps | 16 bit | Дубляж |
Аудио 2: AC3 | 5.1 | 48 kHz | 448 kbps | 16 bit | ENG |
Субтитры: Русские | Полные, Английские | Полные

MedifInfo

Video
ID : 1
Format : AVC
Format/Info : Advanced Video Codec
Format profile : High@L4.1
Format settings, CABAC : Yes
Format settings, ReFrames : 9 frames
Codec ID : V_MPEG4/ISO/AVC
Duration : 1h 53mn
Bit rate : 5 771 Kbps
Width : 1 280 pixels
Height : 532 pixels
Display aspect ratio : 2.40:1
Frame rate mode : Constant
Frame rate : 59.940 (60000/1001) fps
Color space : YUV
Chroma subsampling : 4:2:0
Bit depth : 8 bits
Scan type : Progressive
Bits/(Pixel*Frame) : 0.141
Stream size : 4.57 GiB (85%)
Title : Never.Back.Down.Unrated.(2008).BDRip.720p.[envy].[60fps]
Writing library : x264 core 146 r2538 121396c
Encoding settings : cabac=1 / ref=9 / deblock=1:0:0 / analyse=0x3:0x113 / me=umh / subme=10 / psy=1 / psy_rd=1.00:0.00 / mixed_ref=1 / me_range=24 / chroma_me=1 / trellis=2 / 8x8dct=1 / cqm=0 / deadzone=21,11 / fast_pskip=0 / chroma_qp_offset=-2 / threads=12 / lookahead_threads=1 / sliced_threads=0 / nr=0 / decimate=1 / interlaced=0 / bluray_compat=0 / constrained_intra=0 / bframes=5 / b_pyramid=2 / b_adapt=2 / b_bias=0 / direct=3 / weightb=1 / open_gop=0 / weightp=2 / keyint=250 / keyint_min=25 / scenecut=40 / intra_refresh=0 / rc_lookahead=40 / rc=crf / mbtree=0 / crf=17.0 / qcomp=0.60 / qpmin=0 / qpmax=69 / qpstep=4 / vbv_maxrate=14000 / vbv_bufsize=14000 / crf_max=0.0 / nal_hrd=none / filler=0 / ip_ratio=1.40 / pb_ratio=1.30 / aq=3:0.80
Language : English
Default : Yes
Forced : No
Audio #1
ID : 2
Format : AC-3
Format/Info : Audio Coding 3
Mode extension : CM (complete main)
Format settings, Endianness : Big
Codec ID : A_AC3
Duration : 1h 53mn
Bit rate mode : Constant
Bit rate : 448 Kbps
Channel(s) : 6 channels
Channel positions : Front: L C R, Side: L R, LFE
Sampling rate : 48.0 KHz
Frame rate : 31.250 fps (1536 spf)
Compression mode : Lossy
Stream size : 363 MiB (7%)
Title : Dub
Language : Russian
Default : Yes
Forced : No
Audio #2
ID : 3
Format : AC-3
Format/Info : Audio Coding 3
Mode extension : CM (complete main)
Format settings, Endianness : Big
Codec ID : A_AC3
Duration : 1h 53mn
Bit rate mode : Constant
Bit rate : 448 Kbps
Channel(s) : 6 channels
Channel positions : Front: L C R, Side: L R, LFE
Sampling rate : 48.0 KHz
Frame rate : 31.250 fps (1536 spf)
Compression mode : Lossy
Stream size : 363 MiB (7%)
Title : Eng
Language : English
Default : No
Forced : No
Text #1
ID : 4
Format : UTF-8
Codec ID : S_TEXT/UTF8
Codec ID/Info : UTF-8 Plain Text
Title : Rus full
Language : Russian
Default : No
Forced : No
Text #2
ID : 5
Format : UTF-8
Codec ID : S_TEXT/UTF8
Codec ID/Info : UTF-8 Plain Text
Title : Eng full
Language : English
Default : No
Forced : No

[Цитировать]
dadebay

А в 1080р будет?

[Цитировать]
Kryl

6097А в 1080р будет?
нее , это не моя поделка .

[Цитировать]
dadebay

ок понял

[Цитировать]
HANNIBAL_68

Норм Фильм Улыбаюсь
 
Показать сообщения:    

Текущее время: 06-Дек 15:12

Часовой пояс: UTC + 3


Вы не можете начинать темы
Вы не можете отвечать на сообщения
Вы не можете редактировать свои сообщения
Вы не можете удалять свои сообщения
Вы не можете голосовать в опросах
Вы не можете прикреплять файлы к сообщениям
Вы не можете скачивать файлы