[Цитировать]
Kryl

Никогда не сдавайся 3 / Never Back Down: No Surrender (2016) WEBRip 720p | 60 fps- Информация
Название: Никогда не сдавайся 3
Оригинальное название: Never Back Down: No Surrender
Год выхода: 2016
Жанр: боевик
Режиссер: Майкл Джей Уайт
Сценарий: Крис Хоти, Майкл Джей Уайт
Продюсер: Крэйг Баумгартен, Марк Роупер, Майкл Шелби
В ролях: Эйн О’Брайэн, Стивен Квадрос, Эсай Моралес, Джош Барнетт, Грег Мэтт Гарсия, Эйлид МакКуин, Натан Джонс, Дэмиэн Мевис, Майкл Джей Уайт, Крейтон Марк Джонсон, Йанин Висмитананда, Джиллиан Уайт, Аарон Брамфилд, Дэн Ренальдс, Рон Смуренбург, Брахим Ачаббаке
--Сюжет:
Продолжение бойцовской франшизы о состязаниях по смешанным единоборствам и сопутствующих им закулисных страстях. Экс-звезда Кейс Уокер возвращается на ринг за очередной победой, но старой школе в его лице предстоит потягаться с новой школой.- Страна: США
Продолжительность: 01:41:44

Файл
Кодек: MPEG4/ISO/AVC H.264
Формат: MKV
Качество: WEBRip 720p | 60 fps
Видео: 1280 x 718 (1.783) | 59.940 fps | 5.0 Мбит/сек
Аудио 1: AC3 | 5.1 | 48 kHz | 384 kbps | 16 bit | Прфессиональный многоголосый закадровый (iTunes) |
Аудио 3: AC3 | 5.1 | 48 kHz | 384 kbps | 16 bit | ENG |
Субтитры: Ru, Eng

MedifInfo

Видео
Идентификатор : 1
Формат : AVC
Формат/Информация : Advanced Video Codec
Профиль формата : High@L4.1
Параметр CABAC формата : Да
Параметр ReFrames формата : 3 кадра
Идентификатор кодека : V_MPEG4/ISO/AVC
Продолжительность : 1 ч. 41 м.
Вид битрейта : Переменный
Битрейт : 4772 Кбит/сек
Максимальный битрейт : 5000 Кбит/сек
Ширина : 1280 пикселей
Высота : 718 пикселей
Соотношение сторон : 16:9
Режим частоты кадров : Постоянный
Частота кадров : 59,880 кадров/сек
Частота кадров в оригинале : 59,940 кадров/сек
Стандарт вещания : PAL
Цветовое пространство : YUV
Субдискретизация насыщенности : 4:2:0
Битовая глубина : 8 бит
Тип развёртки : Прогрессивная
Бит/(Пиксели*Кадры) : 0.087
Размер потока : 3,38 Гбайт (84%)
Заголовок : www.60-fps.org
Язык : English
Default : Да
Forced : Нет
Основные цвета : BT.709
Характеристики трансфера : BT.709
Коэффициенты матрицы : BT.709
colour_range : Limited
Аудио #1
Идентификатор : 2
Формат : AC-3
Формат/Информация : Audio Coding 3
Расширение режима : CM (complete main)
Параметр Endianness формата : Big
Идентификатор кодека : A_AC3
Продолжительность : 1 ч. 41 м.
Вид битрейта : Постоянный
Битрейт : 384 Кбит/сек
Каналы : 6 каналов
Расположение каналов : Front: L C R, Side: L R, LFE
Частота : 48,0 КГц
Битовая глубина : 16 бит
Метод сжатия : С потерями
Размер потока : 278 Мбайт (7%)
Заголовок : DUB [iTunes]
Язык : Russian
Default : Да
Forced : Нет
Аудио #2
Идентификатор : 3
Формат : AC-3
Формат/Информация : Audio Coding 3
Расширение режима : CM (complete main)
Параметр Endianness формата : Big
Идентификатор кодека : A_AC3
Продолжительность : 1 ч. 41 м.
Вид битрейта : Постоянный
Битрейт : 384 Кбит/сек
Каналы : 6 каналов
Расположение каналов : Front: L C R, Side: L R, LFE
Частота : 48,0 КГц
Битовая глубина : 16 бит
Метод сжатия : С потерями
Размер потока : 278 Мбайт (7%)
Заголовок : eng
Язык : English
Default : Нет
Forced : Нет
Текст #1
Идентификатор : 4
Формат : UTF-8
Идентификатор кодека : S_TEXT/UTF8
Идентификатор кодека/Информация : UTF-8 Plain Text
Язык : Russian
Default : Нет
Forced : Нет
Текст #2
Идентификатор : 5
Формат : UTF-8
Идентификатор кодека : S_TEXT/UTF8
Идентификатор кодека/Информация : UTF-8 Plain Text
Язык : English
Default : Нет
Forced : Нет
Текст #3
Идентификатор : 6
Формат : UTF-8
Идентификатор кодека : S_TEXT/UTF8
Идентификатор кодека/Информация : UTF-8 Plain Text
Заголовок : SDH
Язык : English
Default : Нет
Forced : Нет
Меню
00:00:00.000 : en:1
00:05:48.807 : en:2
00:12:38.758 : en:3
00:18:37.032 : en:4
00:24:47.235 : en:5
00:31:19.585 : en:6
00:38:53.205 : en:7
00:45:19.966 : en:8
00:52:07.289 : en:9
00:59:06.625 : en:10
01:07:06.438 : en:11
01:12:34.641 : en:12
01:18:51.643 : en:13
01:24:17.593 : en:14
01:31:15.761 : en:15
01:36:48.051 : en:16

Релиз подготовлен 60 - fps

Топик был перенесен из форума Новинки КиноПроката 60 FPS в форум Зарубежные фильмы 60 FPS
Kryl

[Цитировать]
ENIGMA

Огромное Спасибо! Овации
 
Показать сообщения:    

Текущее время: 11-Дек 07:04

Часовой пояс: UTC + 3


Вы не можете начинать темы
Вы не можете отвечать на сообщения
Вы не можете редактировать свои сообщения
Вы не можете удалять свои сообщения
Вы не можете голосовать в опросах
Вы не можете прикреплять файлы к сообщениям
Вы не можете скачивать файлы