Britney Spears - Oops! I Did It Again Uncut (2009) HD 1080p | 60 fps BLACKPINK | WEBRip 1080p | 60 fps Britney Spears - Toxic (2004) HDTVRip 1080p | 60 fps Luis Fonsi - Despacito ft. Daddy Yankee (2017) WEBRip 1080p | 60 fps Rammstein (БЕЗ ЦЕНЗУРЫ)| WEBRip 1080p | 60 fps Jennifer Lopez ft. Iggy Azalea - Booty (2014) Full HD 1080p | 60 fps Dan Balan - Chica Bomb (2010) WEBRip 1080p | 60 fps Evanescence - Synthesis Live (2018) BDRip 1080p | 60 fps
  1. Longevity:
    5 years 4 months
    Posts:
    283
    Gender:
    Male
    NIKITA - ВДЫХАЙ (2015) Full HD 1080p | 60 fps

    Информация о Клипе:
    Исполнители: NIKITA
    Название: ВДЫХАЙ
    Год выпуска: 2015 г.
    Жанр: Pop
    Продолжительность: 00:03:38

    Файл:
    Формат видео: MKV
    Качество видео: Full HD 1080p | 60 fps
    Видео кодек: H.264
    Аудио кодек: AC3
    Видео: 1920x1080 | 60,000 fps | 31,7 Мбит/сек
    Аудио: AC3 | 2 channels | 48 kHz | 448 Кбит/сек

    Автор Рипа:

    MediaInfo

    Видео
    Идентификатор : 1
    Формат : AVC
    Формат/Информация : Advanced Video Codec
    Профиль формата : High@L4.1
    Параметр CABAC формата : Да
    Параметр ReFrames формата : 4 кадра
    Идентификатор кодека : V_MPEG4/ISO/AVC
    Продолжительность : 3 м. 38 с.
    Битрейт : 31,7 Мбит/сек
    Ширина : 1920 пикселей
    Высота : 1080 пикселей
    Соотношение сторон : 16:9
    Режим частоты кадров : Постоянный
    Частота кадров : 60,000 кадров/сек
    Цветовое пространство : YUV
    Субдискретизация насыщенности : 4:2:0
    Битовая глубина : 8 бит
    Тип развёртки : Прогрессивная
    Бит/(Пиксели*Кадры) : 0.255
    Размер потока : 820 Мбайт (97%)
    Заголовок : NIKITA - ВДЫХАЙ « R.G 60-FPS Rip By Kamikkadze »
    Библиотека кодирования : x264 core 146 r2538 121396c
    Настройки программы : cabac=1 / ref=4 / deblock=1:-1:1 / analyse=0x3:0x133 / me=umh / subme=7 / psy=1 / psy_rd=1.00:0.15 / mixed_ref=1 / me_range=16 / chroma_me=1 / trellis=2 / 8x8dct=1 / cqm=0 / deadzone=21,11 / fast_pskip=1 / chroma_qp_offset=-3 / threads=6 / lookahead_threads=1 / sliced_threads=0 / nr=0 / decimate=1 / interlaced=0 / bluray_compat=0 / constrained_intra=0 / bframes=4 / b_pyramid=2 / b_adapt=2 / b_bias=0 / direct=1 / weightb=0 / open_gop=0 / weightp=2 / keyint=250 / keyint_min=25 / scenecut=40 / intra_refresh=0 / rc=abr / mbtree=0 / bitrate=31670 / ratetol=1.0 / qcomp=0.60 / qpmin=0 / qpmax=69 / qpstep=4 / ip_ratio=1.40 / pb_ratio=1.30 / aq=1:1.00
    Default : Да
    Forced : Нет
    Аудио
    Идентификатор : 2
    Формат : AC-3
    Формат/Информация : Audio Coding 3
    Расширение режима : CM (complete main)
    Параметр Endianness формата : Big
    Идентификатор кодека : A_AC3
    Продолжительность : 3 м. 38 с.
    Вид битрейта : Постоянный
    Битрейт : 448 Кбит/сек
    Каналы : 2 канала
    Расположение каналов : Front: L R
    Частота : 48,0 КГц
    Метод сжатия : С потерями
    Размер потока : 11,6 Мбайт (1%)
    Default : Да
    Forced : Нет
    Просьба к переливающим на другие сайты, в оформлении указывайте пожалуйста авторство рипа - Kamikkadze

    Release was prepared by 60 - fps

  2. Longevity:
    4 years 8 months
    Posts:
    26
    Gender:
    Male
    Kamikkadze здравствуйте! А Вы случайно не знаете какой плеер на телефоне(андроид) нормально воспроизводит 60fps? На компьютере смотрю-все четко, также и на телике, а вот на телефоне тормозит(не реально смотреть), пробывал несколькими плеерами, хотя телефон мощный htc one(4 ядра, 2 гига оперы). ?
    23-Oct-2015 18:50 (after 18 days)
  3. Longevity:
    5 years 4 months
    Posts:
    283
    Gender:
    Male
    3979Kamikkadze здравствуйте! А Вы случайно не знаете какой плеер на телефоне(андроид) нормально воспроизводит 60fps? На компьютере смотрю-все четко, также и на телике, а вот на телефоне тормозит(не реально смотреть), пробывал несколькими плеерами, хотя телефон мощный htc one(4 ядра, 2 гига оперы). ?
    пробовал у себя, у меня все отлично работает, попробуйте плееры (mx player bs player vlc player) и поиграть с настройками, должно все четко воспроизводить)
    23-Oct-2015 23:55 (after 5 hours)
  4. Longevity:
    4 years 8 months
    Posts:
    26
    Gender:
    Male
    Здравствуйте kamikkadze! Из этих 3 плееров, что Вы мне посоветовали потянул без торможения только bsplayer и то в нем видео и аудио отставали друг от друга, но как Вы и посоветовали сейчас поиграю с настройками там есть функция задержки аудио меньше или больше. В других плеерах мудрил с настройками, но результат "0". Так что спасибо Вам за то, что подсказали этот плеер.
    25-Oct-2015 08:01 (after 1 day 8 hours)
  5. Longevity:
    6 months 12 days
    Posts:
    1
    Gender:
    Unknown
    Сообщение появится после проверки модератором
    17-Nov-2019 14:02 (after 4 years)


You cannot post new topics in this forum
You cannot reply to topics in this forum
You cannot edit your posts in this forum
You cannot delete your posts in this forum
You cannot vote in polls in this forum
You cannot attach files in this forum
You cannot download files in this forum