План побега 2 / Escape Plan 2: Hades (2018) BDRip 720p | 60 fps Властелин колец: Трилогия / The Lord of the Rings: Trilogy (2001-2003) BDRip-AVC | Extended Cut | 60 fps Красный воробей / Red Sparrow (2018) BDRip 720p | 60 fps Ограбление в ураган / The Hurricane Heist (2018) BDRip 720p | 60 fps Жажда смерти / Death Wish (2018) BDRip 1080p | 60 fps Тихое место / A Quiet Place (2018) BDRip 720p | 60 fps Мир будущего / Future World (2018) BDRip 1080p | 60 fps Жажда смерти / Death Wish (2018) BDRip 720p | 60 fps
  1. Стаж:
    2 года 2 месяца
    Сообщений:
    663
    Пол:
    Мужской
    Фильм «В гневе он Вам не понравится!» Фильм- Информация
    Название: Невероятный Халк
    Оригинальное название: The Incredible Hulk
    Год выхода: 2008
    Жанр: фантастика, боевик, триллер
    Режиссер: Луи Летерье
    Сценарий: Зак Пенн
    Продюсер: Ави Арад, Кевин Файги, Гейл Энн Хёрд
    В ролях: Эдвард Нортон,Лив Тайлер,Тим Рот,Уильям Хёрт,Тим Блейк Нельсон,Тай Бурелл,Кристина Кэбот,Питер Менса,Лу Ферриньо,Пол Соулз
    --Сюжет:
    История доктора Брюса Баннера, который ищет лекарство от своего необычного «заболевания», превращающего его во время эмоционального стресса в гигантского зеленого монстра Халка. Находясь в бегах от армии, стремящейся его захватить, Брюс почти находит лекарство, но все старания идут прахом, когда у Халка вдруг появляется новый, невероятно сильный противник.-- Страна: США
    Продолжительность: 01:52:07

    Файл
    Кодек: MPEG4/ISO/AVC H.264
    Формат: MKV
    Качество: BDRip 720p | 60 fps
    Видео: 1280 x 544 (2.353) | 59.940 fps | 4879 Кбит/сек
    Аудио 1: AC3 | 5.1 | 48 kHz | 384 kbps | 16 bit | Дубляж |
    Субтитры: Russian,Ukrainian

    MedifInfo

    Video
    Идентификатор : 1
    Формат : AVC
    Формат/Информация : Advanced Video Codec
    Профиль формата : High@L4.1
    Параметр CABAC формата : Yes
    Параметр ReFrames формата : 4 frames
    Идентификатор кодека : V_MPEG4/ISO/AVC
    Продолжительность : 1 h 52 min
    Битрейт : 4 879 kb/s
    Ширина : 1 280 pixels
    Высота : 544 pixels
    Соотношение сторон : 2.35:1
    Режим частоты кадров : Constant
    Частота кадров : 60.000 FPS
    Цветовое пространство : YUV
    Субдискретизация насыщенности : 4:2:0
    Битовая глубина : 8 bits
    Тип развёртки : Progressive
    Бит/(Пиксели*Кадры) : 0.117
    Размер потока : 3.82 GiB (91%)
    Заголовок : The Incredible Hulk (2008) BDRip 720p (60 Fps).mkv
    Библиотека кодирования : x264 core 130 r2273 b3065e6
    Настройки программы : cabac=1 / ref=4 / deblock=1:0:0 / analyse=0x3:0x113 / me=umh / subme=8 / psy=1 / psy_rd=1.00:0.00 / mixed_ref=1 / me_range=24 / chroma_me=1 / trellis=2 / 8x8dct=1 / cqm=0 / deadzone=21,11 / fast_pskip=1 / chroma_qp_offset=-2 / threads=3 / lookahead_threads=1 / sliced_threads=0 / nr=0 / decimate=1 / interlaced=0 / bluray_compat=0 / constrained_intra=0 / bframes=4 / b_pyramid=2 / b_adapt=2 / b_bias=0 / direct=1 / weightb=1 / open_gop=0 / weightp=2 / keyint=600 / keyint_min=59 / scenecut=40 / intra_refresh=0 / rc_lookahead=40 / rc=crf / mbtree=1 / crf=15.0 / qcomp=0.60 / qpmin=0 / qpmax=69 / qpstep=4 / ip_ratio=1.40 / aq=1:1.00
    Язык : English
    Default : Yes
    Forced : No
    Audio
    Идентификатор : 2
    Формат : AC-3
    Формат/Информация : Audio Coding 3
    Расширение режима : CM (complete main)
    Параметр Endianness формата : Big
    Идентификатор кодека : A_AC3
    Продолжительность : 1 h 52 min
    Вид битрейта : Constant
    Битрейт : 384 kb/s
    Каналы : 6 channels
    Расположение каналов : Front: L C R, Side: L R, LFE
    Частота : 48.0 kHz
    Частота кадров : 31.250 FPS (1536 spf)
    Битовая глубина : 16 bits
    Метод сжатия : Lossy
    Размер потока : 308 MiB (7%)
    Заголовок : Dub
    Язык : Russian
    Default : Yes
    Forced : No
    Text #1
    Идентификатор : 3
    Формат : UTF-8
    Идентификатор кодека : S_TEXT/UTF8
    Идентификатор кодека/Информация : UTF-8 Plain Text
    Заголовок : Full
    Язык : Russian
    Default : No
    Forced : No
    Text #2
    Идентификатор : 4
    Формат : UTF-8
    Идентификатор кодека : S_TEXT/UTF8
    Идентификатор кодека/Информация : UTF-8 Plain Text
    Заголовок : For
    Язык : Russian
    Default : No
    Forced : No
    Text #3
    Идентификатор : 5
    Формат : UTF-8
    Идентификатор кодека : S_TEXT/UTF8
    Идентификатор кодека/Информация : UTF-8 Plain Text
    Заголовок : For
    Язык : Ukrainian
    Default : No
    Forced : No
    Text #4
    Идентификатор : 6
    Формат : UTF-8
    Идентификатор кодека : S_TEXT/UTF8
    Идентификатор кодека/Информация : UTF-8 Plain Text
    Заголовок : Full
    Язык : Ukrainian
    Default : No
    Forced : No
  2. Стаж:
    2 года 2 месяца
    Сообщений:
    663
    Пол:
    Мужской
    ща ребята пару минут,фильм зальётся мне на сервак и я стану на стабильную раздачу... Подмигиваю
    26-Ноя-2016 12:00 (спустя 44 минуты)
  3. Стаж:
    2 года
    Сообщений:
    96
    Пол:
    Мужской
    Скачалось 33% и встало... Плачу
    26-Ноя-2016 17:23 (спустя 5 часов)
  4. Стаж:
    2 года 4 месяца
    Сообщений:
    4
    Пол:
    Не указан
    Талямба,
    can you add audio english?
    please Плачу
    28-Ноя-2016 06:29 (спустя 1 день 13 часов)
  5. Стаж:
    2 года 2 месяца
    Сообщений:
    663
    Пол:
    Мужской
    lamthuyvan8714, учи Русский язык... Хитренький
    28-Ноя-2016 18:24 (спустя 11 часов)
  6. Стаж:
    2 года 4 месяца
    Сообщений:
    4
    Пол:
    Не указан
    Талямба, Плачу
    29-Ноя-2016 04:32 (спустя 10 часов)


Вы не можете начинать темы
Вы не можете отвечать на сообщения
Вы не можете редактировать свои сообщения
Вы не можете удалять свои сообщения
Вы не можете голосовать в опросах
Вы не можете прикреплять файлы к сообщениям
Вы не можете скачивать файлы