Властелин колец: Трилогия / The Lord of the Rings: Trilogy (2001-2003) BDRip-AVC | Extended Cut | 60 fps Принц Персии: Пески времени / Prince of Persia: The Sands of Time (2010) BDRip 1080p | 60 fps Достать ножи / Knives Out (2019) BDRip 1080p | 60 fps День, когда Земля остановилась / The Day the Earth Stood Still (2008) BDRip 1080p | 60 fps К звёздам / Ad Astra (2019) BDRip 1080p | 60 fps Удивительное путешествие доктора Дулиттла / Dolittle (2020) BDRip 1080p | 60 fps Однажды в… Голливуде / Once Upon a Time... in Hollywood (2019) BDRip 1080p | 60 fps Паразиты / Gisaengchung (2019) BDRip 1080p | 60 fps
  1. bot

    Longevity:
    5 years 11 months
    Posts:
    410
    Gender:
    Unknown

    Неоспоримый / Undisputed (2002)

    «At Sweetwater Prison, The World Heavyweight Champion Is About To Meet His Match»- Информация
    Название: Неоспоримый
    Оригинальное название: Undisputed
    Год выхода: 2002
    Жанр: боевик, драма, криминал, спорт
    Режиссер: Уолтер Хилл
    Сценарий: Дэвид Гайлер, Уолтер Хилл
    Продюсер: Дэвид Гайлер, Уолтер Хилл, Брэд Кревой
    В ролях: Уэсли Снайпс, Винг Реймз, Питер Фальк, Майкл Рукер, Джон Седа, Уэс Стьюди, Фишер Стивенс, Дэйтон Калли, Эми Акино, Джонни Уильямс
    --Сюжет:
    Получив срок за изнасилование и лишившись своего звездного титула, чемпион по боксу в тяжелом весе Джордж Чемберс оказывается в знаменитой своими жестокими порядками тюрьме Свитуотэр, где уже 10 лет неприкасаемым чемпионом является грозный Монро Хатчен.
    Непобедимый Чемберс знает, что в мире нет боксера лучше него, и он готов это доказать. Но и Хатчен не собирается проигрывать. Это поединок не на жизнь, а на смерть.
    - - Страна: США, Германия
    Продолжительность: 01:33:36

    Файл
    Кодек: MPEG4/ISO/AVC H.264
    Формат: MKV
    Качество: BDRip-AVC | 60 fps
    Видео: 1024x432 (2.35:1) | 59.940 fps | 3.9 Мбит/сек
    Аудио: AC3 | 5.1 | 48 kHz | 448 kbps | 16 bit | Профессиональный (многоголосый) R5 |
    Субтитры: русские (Полные), английские (Полные)

    MedifInfo

    Video
    ID : 1
    Format : AVC
    Format/Info : Advanced Video Codec
    Format profile : High@L4.1
    Format settings, CABAC : Yes
    Format settings, ReFrames : 4 frames
    Codec ID : V_MPEG4/ISO/AVC
    Duration : 1h 33mn
    Bit rate : 3 900 Kbps
    Width : 1 024 pixels
    Height : 432 pixels
    Display aspect ratio : 2.35:1
    Frame rate : 59.940 fps
    Color space : YUV
    Chroma subsampling : 4:2:0
    Bit depth : 8 bits
    Scan type : Progressive
    Bits/(Pixel*Frame) : 0.147
    Stream size : 2.49 GiB (88%)
    Writing library : x264 core 146 r2538 121396c
    Encoding settings : cabac=1 / ref=3 / deblock=1:0:0 / analyse=0x3:0x113 / me=umh / subme=9 / psy=1 / psy_rd=1.00:0.10 / mixed_ref=1 / me_range=32 / chroma_me=1 / trellis=2 / 8x8dct=1 / cqm=0 / deadzone=21,11 / fast_pskip=0 / chroma_qp_offset=-3 / threads=12 / lookahead_threads=3 / sliced_threads=0 / nr=0 / decimate=1 / interlaced=0 / bluray_compat=0 / constrained_intra=0 / bframes=16 / b_pyramid=2 / b_adapt=2 / b_bias=0 / direct=3 / weightb=1 / open_gop=0 / weightp=2 / keyint=250 / keyint_min=25 / scenecut=40 / intra_refresh=0 / rc_lookahead=40 / rc=2pass / mbtree=1 / bitrate=3900 / ratetol=1.0 / qcomp=0.60 / qpmin=0 / qpmax=69 / qpstep=4 / cplxblur=20.0 / qblur=0.5 / vbv_maxrate=14000 / vbv_bufsize=14000 / nal_hrd=none / filler=0 / ip_ratio=1.40 / aq=1:1.00
    Language : English
    Default : Yes
    Forced : No
    Audio
    ID : 2
    Format : AC-3
    Format/Info : Audio Coding 3
    Mode extension : CM (complete main)
    Codec ID : A_AC3
    Duration : 1h 33mn
    Bit rate mode : Constant
    Bit rate : 448 Kbps
    Channel(s) : 6 channels
    Channel positions : Front: L C R, Side: L R, LFE
    Sampling rate : 48.0 KHz
    Bit depth : 16 bits
    Compression mode : Lossy
    Stream size : 300 MiB (10%)
    Title : DVO R5
    Language : Russian
    Default : Yes
    Forced : No
    Text #1
    ID : 3
    Format : UTF-8
    Codec ID : S_TEXT/UTF8
    Codec ID/Info : UTF-8 Plain Text
    Title : Полные
    Language : Russian
    Default : No
    Forced : No
    Text #2
    ID : 4
    Format : UTF-8
    Codec ID : S_TEXT/UTF8
    Codec ID/Info : UTF-8 Plain Text
    Title : Полные
    Language : English
    Default : No
    Forced : No
    Menu
    00:00:00.000 : en:00:00:00.000
    00:07:59.688 : en:00:07:59.688
    00:16:05.548 : en:00:16:05.548
    00:23:59.813 : en:00:23:59.813
    00:31:41.608 : en:00:31:41.608
    00:38:46.491 : en:00:38:46.491
    00:46:55.896 : en:00:46:55.896
    00:54:42.863 : en:00:54:42.863
    01:02:23.865 : en:01:02:23.865
    01:10:53.082 : en:01:10:53.082
    01:17:12.002 : en:01:17:12.002
    01:26:25.931 : en:01:26:25.931

    Неоспоримый 2 / Undisputed II: Last Man Standing (2006)

    «He's not fighting for a title... He's fighting for his life»- Информация
    Название: Неоспоримый 2
    Оригинальное название: Undisputed II: Last Man Standing
    Год выхода: 2006
    Жанр: боевик, драма, криминал, спорт
    Режиссер: Айзек Флорентайн
    Сценарий: Джеймс Таунсенд, Дэвид Н. Уайт, Боаз Дэвидсон
    Продюсер: Дэнни Димборт, Дэвид Варод, Боаз Дэвидсон
    В ролях: Майкл Джей Уайт, Скотт Эдкинс, Бен Кросс, Эли Данкер, Марк Иванир, Кен Лернер, Дэйзи Лэнг, Сильвио Шимач, Ивайло Герасков, Валентин Ганев
    --Сюжет:
    Бывший чемпион мира по боксу во время визита в Россию случайно попадает в криминальную разборку, связанную с высшими правительственными чинами и против него фабрикуется ложное дело. Дорога домой будет долгой и трудной, проходящей через суровую российскую тюрьму…
    - - Страна: США
    Продолжительность: 01:38:00

    Файл
    Кодек: MPEG4/ISO/AVC H.264
    Формат: MKV
    Качество: BDRip-AVC | 60 fps
    Видео: 1024x552 (1.855) | 59.940 fps | 4.8 Мбит/сек
    Аудио: AC3 | 5.1 | 48 kHz | 448 kbps | 16 bit | Профессиональный (многоголосый) |
    Субтитры: русские (Полные), английские (Полные)

    MedifInfo

    Video
    ID : 1
    Format : AVC
    Format/Info : Advanced Video Codec
    Format profile : High@L4.1
    Format settings, CABAC : Yes
    Format settings, ReFrames : 4 frames
    Codec ID : V_MPEG4/ISO/AVC
    Duration : 1h 38mn
    Bit rate : 4 800 Kbps
    Width : 1 024 pixels
    Height : 552 pixels
    Display aspect ratio : 1.855
    Frame rate : 59.940 fps
    Color space : YUV
    Chroma subsampling : 4:2:0
    Bit depth : 8 bits
    Scan type : Progressive
    Bits/(Pixel*Frame) : 0.142
    Stream size : 3.19 GiB (89%)
    Writing library : x264 core 146 r2538 121396c
    Encoding settings : cabac=1 / ref=3 / deblock=1:0:0 / analyse=0x3:0x113 / me=umh / subme=9 / psy=1 / psy_rd=1.00:0.10 / mixed_ref=1 / me_range=32 / chroma_me=1 / trellis=2 / 8x8dct=1 / cqm=0 / deadzone=21,11 / fast_pskip=0 / chroma_qp_offset=-3 / threads=12 / lookahead_threads=3 / sliced_threads=0 / nr=0 / decimate=1 / interlaced=0 / bluray_compat=0 / constrained_intra=0 / bframes=16 / b_pyramid=2 / b_adapt=2 / b_bias=0 / direct=3 / weightb=1 / open_gop=0 / weightp=2 / keyint=250 / keyint_min=25 / scenecut=40 / intra_refresh=0 / rc_lookahead=40 / rc=2pass / mbtree=1 / bitrate=4800 / ratetol=1.0 / qcomp=0.60 / qpmin=0 / qpmax=69 / qpstep=4 / cplxblur=20.0 / qblur=0.5 / vbv_maxrate=14000 / vbv_bufsize=14000 / nal_hrd=none / filler=0 / ip_ratio=1.40 / aq=1:1.00
    Language : English
    Default : Yes
    Forced : No
    Audio
    ID : 2
    Format : AC-3
    Format/Info : Audio Coding 3
    Mode extension : CM (complete main)
    Codec ID : A_AC3
    Duration : 1h 38mn
    Bit rate mode : Constant
    Bit rate : 448 Kbps
    Channel(s) : 6 channels
    Channel positions : Front: L C R, Side: L R, LFE
    Sampling rate : 48.0 KHz
    Bit depth : 16 bits
    Compression mode : Lossy
    Stream size : 314 MiB (9%)
    Title : MVO
    Language : Russian
    Default : Yes
    Forced : No
    Text #1
    ID : 3
    Format : UTF-8
    Codec ID : S_TEXT/UTF8
    Codec ID/Info : UTF-8 Plain Text
    Title : Полные
    Language : Russian
    Default : No
    Forced : No
    Text #2
    ID : 4
    Format : UTF-8
    Codec ID : S_TEXT/UTF8
    Codec ID/Info : UTF-8 Plain Text
    Title : Полные
    Language : English
    Default : No
    Forced : No
    Menu
    00:00:00.000 : en:00:00:00.000
    00:12:48.893 : en:00:12:48.893
    00:20:02.118 : en:00:20:02.118
    00:26:09.067 : en:00:26:09.067
    00:30:53.351 : en:00:30:53.351
    00:39:56.936 : en:00:39:56.936
    00:48:14.058 : en:00:48:14.058
    00:52:31.648 : en:00:52:31.648
    00:58:56.533 : en:00:58:56.533
    01:03:05.907 : en:01:03:05.907
    01:11:07.305 : en:01:11:07.305
    01:15:51.464 : en:01:15:51.464
    01:19:19.755 : en:01:19:19.755
    01:21:45.567 : en:01:21:45.567
    01:28:16.625 : en:01:28:16.625
    01:34:01.219 : en:01:34:01.219

    Неоспоримый 3 / Undisputed III: Redemption (2010)

    «One Deadly Tournament. A Last Fight For Freedom»- Информация
    Название: Неоспоримый 3
    Оригинальное название: Undisputed III: Redemption
    Год выхода: 2010
    Жанр: боевик, драма, криминал, спорт
    Режиссер: Айзек Флорентайн
    Сценарий: Дэвид Н. Уайт
    Продюсер: Звия Димборт, Израэль Рингел, Дэнни Димборт
    В ролях: Скотт Эдкинс, Майкл Шеннон Дженкинс, Марк Иванир, Христо Шопов, Марко Зарор, Майкл Бэрал, Илрам Чои, Роберт Костанцо, Латиф Кроудер, Эстебан Куето
    --Сюжет:
    Юрий Бойка — российский чемпион подпольных боев без правил, постепенно оправляющийся от полученной в последнем поединке травмы, решает вернуться на ринг. Победив в бою нынешнего чемпиона тюрьмы «Чёрные Холмы», его босс — Гага — решает отправить его на международный чемпионат тюремных поединков. Поврежденное колено дает о себе знать в каждом бою и беспокоит Бойку, но он готов пройти до конца, чтобы сразиться с колумбийским бойцом и доказать, что он неоспоримый.
    - - Страна: США
    Продолжительность: 01:36:02

    Файл
    Кодек: MPEG4/ISO/AVC H.264
    Формат: MKV
    Качество: BDRip-AVC | 60 fps
    Видео: 1024x576 (16:9) | 59.940 fps | 5.0 Мбит/сек
    Аудио: AC3 | 5.1 | 48 kHz | 640 kbps | 16 bit | Профессиональный (многоголосый) |
    Субтитры: русские (Полные), английские (Полные)

    MedifInfo

    Video
    ID : 1
    Format : AVC
    Format/Info : Advanced Video Codec
    Format profile : High@L4.1
    Format settings, CABAC : Yes
    Format settings, ReFrames : 4 frames
    Codec ID : V_MPEG4/ISO/AVC
    Duration : 1h 36mn
    Bit rate : 5 000 Kbps
    Width : 1 024 pixels
    Height : 576 pixels
    Display aspect ratio : 16:9
    Frame rate : 59.940 fps
    Color space : YUV
    Chroma subsampling : 4:2:0
    Bit depth : 8 bits
    Scan type : Progressive
    Bits/(Pixel*Frame) : 0.141
    Stream size : 3.27 GiB (87%)
    Writing library : x264 core 146 r2538 121396c
    Encoding settings : cabac=1 / ref=3 / deblock=1:0:0 / analyse=0x3:0x113 / me=umh / subme=9 / psy=1 / psy_rd=1.00:0.10 / mixed_ref=1 / me_range=32 / chroma_me=1 / trellis=2 / 8x8dct=1 / cqm=0 / deadzone=21,11 / fast_pskip=0 / chroma_qp_offset=-3 / threads=12 / lookahead_threads=3 / sliced_threads=0 / nr=0 / decimate=1 / interlaced=0 / bluray_compat=0 / constrained_intra=0 / bframes=16 / b_pyramid=2 / b_adapt=2 / b_bias=0 / direct=3 / weightb=1 / open_gop=0 / weightp=2 / keyint=250 / keyint_min=25 / scenecut=40 / intra_refresh=0 / rc_lookahead=40 / rc=2pass / mbtree=1 / bitrate=5000 / ratetol=1.0 / qcomp=0.60 / qpmin=0 / qpmax=69 / qpstep=4 / cplxblur=20.0 / qblur=0.5 / vbv_maxrate=14000 / vbv_bufsize=14000 / nal_hrd=none / filler=0 / ip_ratio=1.40 / aq=1:1.00
    Language : English
    Default : Yes
    Forced : No
    Audio
    ID : 2
    Format : AC-3
    Format/Info : Audio Coding 3
    Mode extension : CM (complete main)
    Codec ID : A_AC3
    Duration : 1h 36mn
    Bit rate mode : Constant
    Bit rate : 640 Kbps
    Channel(s) : 6 channels
    Channel positions : Front: L C R, Side: L R, LFE
    Sampling rate : 48.0 KHz
    Bit depth : 16 bits
    Compression mode : Lossy
    Stream size : 440 MiB (11%)
    Title : MVO R5
    Language : Russian
    Default : Yes
    Forced : No
    Text #1
    ID : 3
    Format : UTF-8
    Codec ID : S_TEXT/UTF8
    Codec ID/Info : UTF-8 Plain Text
    Title : Полные
    Language : Russian
    Default : No
    Forced : No
    Text #2
    ID : 4
    Format : UTF-8
    Codec ID : S_TEXT/UTF8
    Codec ID/Info : UTF-8 Plain Text
    Title : Полные
    Language : English
    Default : No
    Forced : No
    Menu
    00:00:00.000 : en:00:00:00.000
    00:11:31.232 : en:00:11:31.232
    00:19:26.457 : en:00:19:26.457
    00:28:14.276 : en:00:28:14.276
    00:40:06.696 : en:00:40:06.696
    00:49:29.341 : en:00:49:29.341
    01:01:16.464 : en:01:01:16.464
    01:12:28.844 : en:01:12:28.844
    01:25:33.337 : en:01:25:33.337
    01:32:27.083 : en:01:32:27.083


You cannot post new topics in this forum
You cannot reply to topics in this forum
You cannot edit your posts in this forum
You cannot delete your posts in this forum
You cannot vote in polls in this forum
You cannot attach files in this forum
You cannot download files in this forum