Die Antwoord - Ugly Boy (2014) WEBRip 1080p | 60 FPS Luis Fonsi - Despacito ft. Daddy Yankee (2017) WEBRip 1080p | 60 fps Kylie Minogue - All The Lovers (2010) BDRip 1080p | 60 fps Nicki Minaj - Anaconda (2014) BDRip 1080p | 60 fps Eminem ft. Rihanna - Love The Way You Lie (2010) Full HD 1080p | 60 fps Ariana Grande-Focus (2015) Full HD 1080p | 60 fps Sia - Chandelier (2014 ) Full HD 1080p | 60 fps Katy Perry - Dark Horse (2014) Full HD 1080p | 60 fps
  1. Longevity:
    6 years 8 months
    Posts:
    2414
    Gender:
    Male
    -Nelly Furtado - Promiscuous ft. Timbaland (2009) Full HD 1080p | 60 fps- -Информация
    Исполнитель: Nelly Furtado
    Название: Promiscuous ft. Timbaland
    Год выхода: 2009
    Продолжительность: 00:04:08-Файл
    Кодек: MPEG4/ISO/AVC/H.264
    Формат: MKV
    Качество: Full HD 1080p | 60 fps
    Видео : 1408 x 1080 (1.304) | 59.940 fps 20.0 Мбит/сек
    Аудио : AC-3 | 384 Кбит/сек | 48.0 KHz | 2.0 ch

    MediaInfo

    Видео
    Идентификатор : 1
    Формат : AVC
    Формат/Информация : Advanced Video Codec
    Профиль формата : [email protected]
    Параметр CABAC формата : Да
    Параметр ReFrames формата : 3 кадра
    Идентификатор кодека : V_MPEG4/ISO/AVC
    Продолжительность : 4 м. 8 с.
    Вид битрейта : Переменный
    Битрейт : 19,1 Мбит/сек
    Максимальный битрейт : 20,0 Мбит/сек
    Ширина : 1408 пикселей
    Высота : 1080 пикселей
    Соотношение сторон : 4:3
    Режим частоты кадров : Постоянный
    Частота кадров : 59,880 кадров/сек
    Частота кадров в оригинале : 59,940 кадров/сек
    Стандарт вещания : PAL
    Цветовое пространство : YUV
    Субдискретизация насыщенности : 4:2:0
    Битовая глубина : 8 бит
    Тип развёртки : Прогрессивная
    Бит/(Пиксели*Кадры) : 0.210
    Размер потока : 566 Мбайт (96%)
    Заголовок : www.60-fps.org
    Язык : English
    Default : Да
    Forced : Нет
    Основные цвета : BT.709
    Характеристики трансфера : BT.709
    Коэффициенты матрицы : BT.709
    colour_range : Limited
    Аудио
    Идентификатор : 2
    Формат : AC-3
    Формат/Информация : Audio Coding 3
    Расширение режима : CM (complete main)
    Параметр Endianness формата : Big
    Идентификатор кодека : A_AC3
    Продолжительность : 4 м. 8 с.
    Вид битрейта : Постоянный
    Битрейт : 384 Кбит/сек
    Каналы : 2 канала
    Расположение каналов : Front: L R
    Частота : 48,0 КГц
    Битовая глубина : 16 бит
    Метод сжатия : С потерями
    Размер потока : 11,4 Мбайт (2%)
    Default : Да
    Forced : Нет

    Release was prepared by 60-fps.org



You cannot post new topics in this forum
You cannot reply to topics in this forum
You cannot edit your posts in this forum
You cannot delete your posts in this forum
You cannot vote in polls in this forum
You cannot attach files in this forum
You cannot download files in this forum