Нечто (1982)

-Название: Нечто
Оригинальное название: The Thing
Год выпуска: 1982
Страна: США
Жанр: ужасы, фантастика, триллер, детектив
Продолжительность: 01:48:42
Перевод: Профессиональный многоголосый
Субтитры: русские (Полные), английские (Полные),-Режиссер: Джон Карпентер / John Carpenter-В ролях: Курт Рассел (R.J. MacReady), Кит Дэвид (Childs), Уилфорд Бримли (Dr. Blair), Т.К. Картер (Nauls), Дэвид Кленнон (Palmer), Ричард А. Дайсарт (Dr. Copper), Чарльз Хэллахан (Vance Norris), Питер Мэлоуни (George Bennings), Ричард Мейсер (Clark), Дональд Моффет (Garry), Джоэл Полис (Fuchs), Томас Дж. Уэйтс (Windows)-Описание:
Команде ученых американской исследовательской базы в Антарктике предстоит столкнуться с необъяснимым, чудовищным кошмаром. Отрезанные от всего света полярники вступают в неравную схватку с инопланетной тварью, пробудившейся после тысячелетней спячки во льдах, беспощадным существом, которое проснулось и... проголодалось.-Рейтинг
kinopoisk.ru: 7.804 (36 715)
imdb.com: 8.20 (202 653)
MPAA: R - Лицам до 17 лет обязательно присутствие взрослого-Автор рипа:Tiberiumsun69-Качество: BDRip 1080p / 60 FPS
Формат: MKV
Видеокодек: MPEG-4 AVC/H.264
Битрейт видео: ~10300 kb/s
Размер кадра: 1920*816
Аудио 1 Русский: AC3 5.1, 384 kb/s, Многоголосый закадровый, Лицензия
Аудио 2 Русский: AC3 5.1, 384 kb/s, Многоголосый закадровый, Студия Киномания
Аудио 3 Английский: AC3 5.1, 640 kb/s
Навигация по главам: есть- -

MI

Общее
Уникальный идентификатор : 175568357079403753584186696939583773825 (0x84153C51804DE3C8B817E365984B1C81)
Полное имя : A:\1080p 60fps\Нечто 1080p 60fps\Нечто (1982) 1080p 60fps.mkv
Формат : Matroska
Версия формата : Version 4 / Version 2
Размер файла : 9,04 Гбайт
Продолжительность : 1 ч. 48 м.
Общий поток : 11,9 Мбит/сек
Дата кодирования : UTC 2014-07-29 15:40:17
Программа кодирования : mkvmerge v6.9.1 ('Blue Panther') 64bit built on Apr 18 2014 18:23:38
Библиотека кодирования : libebml v1.3.0 + libmatroska v1.4.1
Видео
Идентификатор : 1
Формат : AVC
Формат/Информация : Advanced Video Codec
Профиль формата : High@L4.1
Параметр CABAC формата : Да
Параметр ReFrames формата : 4 кадра
Идентификатор кодека : V_MPEG4/ISO/AVC
Продолжительность : 1 ч. 48 м.
Битрейт : 10,3 Мбит/сек
Ширина : 1920 пикселей
Высота : 816 пикселей
Соотношение сторон : 2,35:1
Режим частоты кадров : Постоянный
Частота кадров : 59,880 кадров/сек
Частота кадров в оригинале : 59,940 кадров/сек
Цветовое пространство : YUV
Субдискретизация насыщенности : 4:2:0
Битовая глубина : 8 бит
Тип развёртки : Прогрессивная
Бит/(Пиксели*Кадры) : 0.109
Размер потока : 7,79 Гбайт (86%)
Библиотека кодирования : x264 core 130 r2273 b3065e6
Настройки программы : cabac=1 / ref=4 / deblock=1:-1:-1 / analyse=0x3:0 / me=umh / subme=9 / psy=1 / psy_rd=1.00:0.10 / mixed_ref=1 / me_range=42 / chroma_me=0 / trellis=2 / 8x8dct=1 / cqm=0 / deadzone=21,11 / fast_pskip=0 / chroma_qp_offset=-3 / threads=12 / lookahead_threads=1 / sliced_threads=0 / nr=0 / decimate=0 / interlaced=0 / bluray_compat=0 / constrained_intra=0 / bframes=5 / b_pyramid=2 / b_adapt=2 / b_bias=0 / direct=1 / weightb=1 / open_gop=0 / weightp=2 / keyint=594 / keyint_min=59 / scenecut=40 / intra_refresh=0 / rc=crf / mbtree=0 / crf=13.0 / qcomp=0.60 / qpmin=0 / qpmax=69 / qpstep=4 / ip_ratio=1.40 / pb_ratio=1.30 / aq=0
Язык : English
Default : Да
Forced : Нет
Аудио #1
Идентификатор : 2
Формат : AC-3
Формат/Информация : Audio Coding 3
Расширение режима : CM (complete main)
Параметр Endianness формата : Big
Идентификатор кодека : A_AC3
Продолжительность : 1 ч. 48 м.
Вид битрейта : Постоянный
Битрейт : 384 Кбит/сек
Каналы : 6 каналов
Расположение каналов : Front: L C R, Side: L R, LFE
Частота : 48,0 КГц
Битовая глубина : 16 бит
Метод сжатия : С потерями
Размер потока : 299 Мбайт (3%)
Заголовок : MVO Лицензия
Язык : Russian
Default : Да
Forced : Нет
Аудио #2
Идентификатор : 3
Формат : AC-3
Формат/Информация : Audio Coding 3
Расширение режима : CM (complete main)
Параметр Endianness формата : Big
Идентификатор кодека : A_AC3
Продолжительность : 1 ч. 48 м.
Вид битрейта : Постоянный
Битрейт : 384 Кбит/сек
Каналы : 6 каналов
Расположение каналов : Front: L C R, Side: L R, LFE
Частота : 48,0 КГц
Битовая глубина : 16 бит
Метод сжатия : С потерями
Размер потока : 299 Мбайт (3%)
Заголовок : MVO Киномания
Язык : Russian
Default : Нет
Forced : Нет
Аудио #3
Идентификатор : 4
Формат : AC-3
Формат/Информация : Audio Coding 3
Расширение режима : CM (complete main)
Параметр Endianness формата : Big
Идентификатор кодека : A_AC3
Продолжительность : 1 ч. 48 м.
Вид битрейта : Постоянный
Битрейт : 640 Кбит/сек
Каналы : 6 каналов
Расположение каналов : Front: L C R, Side: L R, LFE
Частота : 48,0 КГц
Битовая глубина : 16 бит
Метод сжатия : С потерями
Размер потока : 498 Мбайт (5%)
Заголовок : Original
Язык : English
Default : Нет
Forced : Нет
Текст #1
Идентификатор : 5
Формат : UTF-8
Идентификатор кодека : S_TEXT/UTF8
Идентификатор кодека/Информация : UTF-8 Plain Text
Заголовок : Full
Язык : Russian
Default : Нет
Forced : Нет
Текст #2
Идентификатор : 6
Формат : UTF-8
Идентификатор кодека : S_TEXT/UTF8
Идентификатор кодека/Информация : UTF-8 Plain Text
Заголовок : Full
Язык : English
Default : Нет
Forced : Нет
Меню
00:00:00.000 : en:Chapter 1
00:02:07.794 : en:Chapter 2
00:04:34.899 : en:Chapter 3
00:07:02.880 : en:Chapter 4
00:10:24.248 : en:Chapter 5
00:14:22.987 : en:Chapter 6
00:15:49.281 : en:Chapter 7
00:22:14.249 : en:Chapter 8
00:24:50.447 : en:Chapter 9
00:27:01.620 : en:Chapter 10
00:30:13.812 : en:Chapter 11
00:33:03.481 : en:Chapter 12
00:34:15.720 : en:Chapter 13
00:36:03.411 : en:Chapter 14
00:37:22.657 : en:Chapter 15
00:40:05.444 : en:Chapter 16
00:41:44.627 : en:Chapter 17
00:45:32.312 : en:Chapter 18
00:46:31.747 : en:Chapter 19
00:50:18.223 : en:Chapter 20
00:54:44.197 : en:Chapter 21
00:57:36.411 : en:Chapter 22
00:59:08.795 : en:Chapter 23
01:02:47.388 : en:Chapter 24
01:05:28.382 : en:Chapter 25
01:09:51.979 : en:Chapter 26
01:14:23.667 : en:Chapter 27
01:17:43.700 : en:Chapter 28
01:18:44.803 : en:Chapter 29
01:25:18.571 : en:Chapter 30
01:26:41.237 : en:Chapter 31
01:29:19.187 : en:Chapter 32
01:31:14.969 : en:Chapter 33
01:34:25.701 : en:Chapter 34
01:37:19.333 : en:Chapter 35
01:39:14.448 : en:Chapter 36
01:42:09.206 : en:Chapter 37
01:48:42.182 : en:Chapter 38

Скриншоты

Нечто (2011)

-Название: Нечто
Оригинальное название: The Thing
Год выпуска: 2011
Страна: США, Канада
Жанр: ужасы, фантастика, триллер, детектив
Продолжительность: 01:43:01
Перевод: Дубляж
Субтитры: русские (Полные), английские (Полные)-Режиссер: Маттис ван Хейниген мл. / Matthijs van Heijningen Jr.-В ролях: Мэри Элизабет Уинстэд (Kate Lloyd), Джоэл Эдгертон (Sam Carter), Ульрих Томсен (Dr. Sander Halvorson), Эрик Кристиан Олсен (Adam Finch), Адевале Акинойе-Агбаже (Derek Jameson), Пол Браунштейн (Griggs), Тронд Эспен Сейм (Edvard Wolner), Ким Баббс (Juliette), Ёрген Лангхелле (Lars), Ян Гуннар Рёйсе (Olav), Стиг Хенрик Хофф (Peder), Кристофер Хивджу (Jonas)-Описание:
Научная экспедиция обнаруживает в Антарктике потерпевший крушение инопланетный космический корабль. Группа отчаянных учёных проникает в его недра и неожиданно для самих себя открывает ящик Пандоры. Среди непроходимых снегов и ледяных гор, выпущенное на свободу Нечто устраивает на исследовательской станции жуткую бойню.-Рейтинг
kinopoisk.ru: 6.462 (26 352)
imdb.com: 6.30 (78 862)
MPAA: R - Лицам до 17 лет обязательно присутствие взрослого-Автор рипа:Tiberiumsun69-Качество: BDRip 1080p / 60 FPS
Формат: MKV
Видеокодек: MPEG-4 AVC/H.264
Битрейт видео: ~13200 kb/s
Размер кадра: 1920*800
Аудио 1 Русский: AC3 5.1, 640 kb/s, Дубляж, BD CEE
Аудио 2 Английский: AC3 5.1, 640 kb/s
Навигация по главам: есть- -

MI

Общее
Уникальный идентификатор : 174629561974496340564816228059257730632 (0x83606E25669ACAC0B0EE409BBC937648)
Полное имя : A:\1080p 60fps\Нечто 1080p 60fps\Нечто (2011) 1080p 60fps.mkv
Формат : Matroska
Версия формата : Version 4 / Version 2
Размер файла : 10,6 Гбайт
Продолжительность : 1 ч. 43 м.
Общий поток : 14,8 Мбит/сек
Дата кодирования : UTC 2014-07-29 16:15:07
Программа кодирования : mkvmerge v6.9.1 ('Blue Panther') 64bit built on Apr 18 2014 18:23:38
Библиотека кодирования : libebml v1.3.0 + libmatroska v1.4.1
Видео
Идентификатор : 1
Формат : AVC
Формат/Информация : Advanced Video Codec
Профиль формата : High@L4.1
Параметр CABAC формата : Да
Параметр ReFrames формата : 4 кадра
Идентификатор кодека : V_MPEG4/ISO/AVC
Продолжительность : 1 ч. 43 м.
Битрейт : 13,2 Мбит/сек
Ширина : 1920 пикселей
Высота : 800 пикселей
Соотношение сторон : 2,40:1
Режим частоты кадров : Постоянный
Частота кадров : 59,880 кадров/сек
Частота кадров в оригинале : 59,940 кадров/сек
Цветовое пространство : YUV
Субдискретизация насыщенности : 4:2:0
Битовая глубина : 8 бит
Тип развёртки : Прогрессивная
Бит/(Пиксели*Кадры) : 0.143
Размер потока : 9,49 Гбайт (89%)
Библиотека кодирования : x264 core 130 r2273 b3065e6
Настройки программы : cabac=1 / ref=4 / deblock=1:-1:-1 / analyse=0x3:0 / me=umh / subme=9 / psy=1 / psy_rd=1.00:0.10 / mixed_ref=1 / me_range=42 / chroma_me=0 / trellis=2 / 8x8dct=1 / cqm=0 / deadzone=21,11 / fast_pskip=0 / chroma_qp_offset=-3 / threads=12 / lookahead_threads=1 / sliced_threads=0 / nr=0 / decimate=0 / interlaced=0 / bluray_compat=0 / constrained_intra=0 / bframes=5 / b_pyramid=2 / b_adapt=2 / b_bias=0 / direct=1 / weightb=1 / open_gop=0 / weightp=2 / keyint=594 / keyint_min=59 / scenecut=40 / intra_refresh=0 / rc=crf / mbtree=0 / crf=13.0 / qcomp=0.60 / qpmin=0 / qpmax=69 / qpstep=4 / ip_ratio=1.40 / pb_ratio=1.30 / aq=0
Язык : English
Default : Да
Forced : Нет
Аудио #1
Идентификатор : 2
Формат : AC-3
Формат/Информация : Audio Coding 3
Расширение режима : CM (complete main)
Параметр Endianness формата : Big
Идентификатор кодека : A_AC3
Продолжительность : 1 ч. 43 м.
Вид битрейта : Постоянный
Битрейт : 640 Кбит/сек
Каналы : 6 каналов
Расположение каналов : Front: L C R, Side: L R, LFE
Частота : 48,0 КГц
Битовая глубина : 16 бит
Метод сжатия : С потерями
Размер потока : 472 Мбайт (4%)
Заголовок : Дубляж
Язык : Russian
Default : Да
Forced : Нет
Аудио #2
Идентификатор : 3
Формат : AC-3
Формат/Информация : Audio Coding 3
Расширение режима : CM (complete main)
Параметр Endianness формата : Big
Идентификатор кодека : A_AC3
Продолжительность : 1 ч. 43 м.
Вид битрейта : Постоянный
Битрейт : 640 Кбит/сек
Каналы : 6 каналов
Расположение каналов : Front: L C R, Side: L R, LFE
Частота : 48,0 КГц
Битовая глубина : 16 бит
Метод сжатия : С потерями
Размер потока : 472 Мбайт (4%)
Заголовок : Original
Язык : English
Default : Нет
Forced : Нет
Текст #1
Идентификатор : 4
Формат : UTF-8
Идентификатор кодека : S_TEXT/UTF8
Идентификатор кодека/Информация : UTF-8 Plain Text
Заголовок : Full
Язык : Russian
Default : Нет
Forced : Нет
Текст #2
Идентификатор : 5
Формат : UTF-8
Идентификатор кодека : S_TEXT/UTF8
Идентификатор кодека/Информация : UTF-8 Plain Text
Заголовок : Full
Язык : English
Default : Нет
Forced : Нет
Меню
00:00:00.000 : en:00:00:00.000
00:04:31.897 : en:00:04:31.897
00:10:51.901 : en:00:10:51.901
00:14:41.422 : en:00:14:41.422
00:17:05.775 : en:00:17:05.775
00:20:39.655 : en:00:20:39.655
00:25:09.550 : en:00:25:09.550
00:32:49.634 : en:00:32:49.634
00:38:06.117 : en:00:38:06.117
00:43:02.705 : en:00:43:02.705
00:51:15.739 : en:00:51:15.739
00:55:13.185 : en:00:55:13.185
01:00:04.351 : en:01:00:04.351
01:04:51.805 : en:01:04:51.805
01:09:58.236 : en:01:09:58.236
01:14:39.517 : en:01:14:39.517
01:20:58.520 : en:01:20:58.520
01:24:46.373 : en:01:24:46.373
01:30:30.675 : en:01:30:30.675
01:34:56.316 : en:01:34:56.316

Скриншоты

Просьба к переливающим на другие сайты, в оформлении указывайте пожалуйста авторство рипа - Tiberiumsun69


Последний раз редактировалось: bot (2016-03-06 16:58), всего редактировалось 1 раз

[Цитировать]
rembo1410

спасибо!!!
 
Показать сообщения:    

Текущее время: 21-Сен 15:31

Часовой пояс: UTC + 3


Вы не можете начинать темы
Вы не можете отвечать на сообщения
Вы не можете редактировать свои сообщения
Вы не можете удалять свои сообщения
Вы не можете голосовать в опросах
Вы не можете прикреплять файлы к сообщениям
Вы не можете скачивать файлы