[Цитировать]
Kryl

Не может быть! (1975) DVDRip | 60fps- -Русское название: Не может быть!
Год выпуска: 1975
Производство: СССР
Жанр: Комедия, Мелодрама-Режиссер: Леонид Гайдай
Актеры: Михаил Пуговкин, Нина Гребешкова, Вячеслав Невинный, Михаил Светин, Наталья Селезнёва, Олег Даль, Светлана Крючкова, Евгений Жариков, Лариса Еремина, Михаил Кокшенов, Георгий Вицин, Леонид Куравлев, Савелий Краморов, Готлиб Ронинсон, Сергей Филиппов-Описание фильма:
Фильм состоит из трёх новелл:
Преступление и наказание
В первой описываются сложности человека, живущего в советское время конца 20-х годов на нетрудовые доходы. Будучи вызванным к прокурору, главный герой небезосновательно полагает, что вызов этот не принесёт ничего хорошего. Эти же мысли посещают его супругу и шурина, которые, дабы предупредить неизбежную конфискацию имущества, срочно продают всё, что было нажито «непосильным» трудом. Кроме того, жена спешно разводится с главным героем и выходит замуж за соседа. А сам главный герой, которого всего-навсего вызывали свидетелем, в отличном настроении возвращается домой… Впрочем, героя арестуют, но это будет потом.
Кадр из кинофильма «Не может быть!»
Забавное приключение
Во второй показаны тонкости внебрачных отношений. Уходя в выходной день якобы на работу, а на самом деле к любовнице, иногда сложно себе представить, что муж любовницы вполне может оказаться любовником подруги любовницы, а сосед подруги любовницы по коммуналке — любовником твоей собственной жены. В конце-концов, все шестеро героев чисто случайно, при интересных обстоятельствах, пересекаются вместе, и собравшись за столом, пытаются найти выход из сложившейся ситуации.
Свадебное происшествие
В третьей молодой человек, поторопившийся с предложением руки и сердца, приходит на собственную свадьбу, где никак не может узнать свою невесту — до этого они встречались только на улице и он запомнил её в зимней одежде. Попытки незаметно выяснить, кто же из присутствующих женщин его будущая жена, приводят к непредсказуемым последствиям.- -Продолжительность: 01:31:39
Качество видео: DVDRip
Контейнер: MKV
Видеокодек: MPEG-4 AVC/H.264
Битрейт видео: 5020 Кбит/сек
Размер кадра: 704 x 512 (1.375) 60.000 fps
Аудиокодек: AC-3
Битрейт аудио: 48 kHz, 448 Кбит/сек, 6 каналов

MI

Программа кодирования : mkvmerge v3.4.0 ('Rapunzel') сборка от May 15 2010 09:38:20
Библиотека кодирования : libebml v0.8.0 + libmatroska v0.9.0

Видео
Идентификатор : 1
Формат : AVC
Формат/Информация : Advanced Video Codec
Профиль формата : High@L4.1
Параметр CABAC формата : Да
Параметр ReFrames формата : 16 кадров
Идентификатор кодека : V_MPEG4/ISO/AVC
Продолжительность : 1 ч. 31 м.
Битрейт : 5020 Кбит/сек
Ширина : 704 пикселя
Высота : 512 пикселей
Соотношение сторон : 1,375
Режим частоты кадров : Постоянный
Частота кадров : 60,000 кадров/сек
Цветовое пространство : YUV
Субдискретизация насыщенности : 4:2:0
Битовая глубина : 8 бит
Тип развёртки : Прогрессивная
Бит/(Пиксели*Кадры) : 0.232
Размер потока : 3,15 Гбайт (90%)
Заголовок : reliz kryl1411
Библиотека кодирования : x264 core 129 r2245 bc13772
Настройки программы : cabac=1 / ref=16 / deblock=1:-3:-3 / analyse=0x3:0x133 / me=esa / subme=11 / psy=1 / psy_rd=1.00:0.00 / mixed_ref=1 / me_range=32 / chroma_me=1 / trellis=2 / 8x8dct=1 / cqm=0 / deadzone=21,11 / fast_pskip=1 / chroma_qp_offset=-2 / threads=12 / lookahead_threads=2 / sliced_threads=0 / nr=0 / decimate=1 / interlaced=0 / bluray_compat=0 / constrained_intra=0 / bframes=8 / b_pyramid=2 / b_adapt=2 / b_bias=0 / direct=3 / weightb=1 / open_gop=0 / weightp=2 / keyint=600 / keyint_min=60 / scenecut=40 / intra_refresh=0 / rc_lookahead=60 / rc=2pass / mbtree=1 / bitrate=5020 / ratetol=1.0 / qcomp=0.60 / qpmin=0 / qpmax=69 / qpstep=4 / cplxblur=20.0 / qblur=0.5 / ip_ratio=1.40 / aq=1:1.00
Язык : English
Default : Нет
Forced : Нет
Аудио
Идентификатор : 2
Формат : AC-3
Формат/Информация : Audio Coding 3
Расширение режима : CM (complete main)
Параметр Endianness формата : Big
Идентификатор кодека : A_AC3
Продолжительность : 1 ч. 31 м.
Вид битрейта : Постоянный
Битрейт : 448 Кбит/сек
Каналы : 6 каналов
Расположение каналов : Front: L C R, Side: L R, LFE
Частота : 48,0 КГц
Битовая глубина : 16 бит
Метод сжатия : С потерями
Размер потока : 294 Мбайт (8%)
Default : Да
Forced : Нет
Скриншоты

Топик был перенесен из форума Зарубежные фильмы 60fps в форум Наши фильмы 60fps
KRYL

[Цитировать]
Pesotsky_29

Спасибо!Вообще один из лучших фильмов!
 
Показать сообщения:    

Текущее время: 21-Сен 04:32

Часовой пояс: UTC + 3


Вы не можете начинать темы
Вы не можете отвечать на сообщения
Вы не можете редактировать свои сообщения
Вы не можете удалять свои сообщения
Вы не можете голосовать в опросах
Вы не можете прикреплять файлы к сообщениям
Вы не можете скачивать файлы