[Цитировать]
Kryl

«Семнадцатилетний Марти МакФлай пришел вчера домой пораньше. На 30 лет раньше. »- Информация
Название: Назад в будущее
Оригинальное название: Back to the Future
Год выхода: 1985
Жанр: Фантастика, комедия, приключения
Режиссер: Роберт Земекис
Сценарий: Роберт Земекис, Боб Гейл
Продюсер: Нил Кэнтон, Боб Гейл, Кэтлин Кеннеди
В ролях: Майкл Дж. Фокс, Кристофер Ллойд, Лиа Томпсон, Криспин Гловер, Томас Ф. Уилсон, Клодия Уэллс, Марк МакКлюр, Уэнди Джо Спербер, Джордж ДиЧенцо, Фрэнсис Ли МакКейн
--Сюжет:
Подросток Марти с помощью машины времени, сооруженной его другом профессором доком Брауном, попадает из 80-х в далекие 50-е. Там он встречается со своими будущими родителями, еще подростками, и другом-профессором, совсем молодым.- - Страна: США
Продолжительность: 01:56:00

Файл
Кодек: MPEG4/ISO/AVC H.264
Формат: MKV
Качество: BDRip 1080p | 60 fps
Видео: 1920 x 1040 (1.846) | 59.940 fps | 25.0 Мбит/сек
Аудио 1: AC3 | 5.1 | 48 kHz | 448 kbps | 16 bit | Дубляж с лицензии (Пифагор) |
Аудио 2: AC3 | 5.1 | 48 kHz | 448 kbps | 16 bit | Гаврилов Андрей (ранний) |
Аудио 3: AC3 | 5.1 | 48 kHz | 448 kbps | 16 bit | Гаврилов Андрей (поздний) |
Аудио 4: AC3 | 5.1 | 48 kHz | 448 kbps | 16 bit | Михалёв Алексей |
Аудио 5: AC3 | 5.1 | 48 kHz | 448 kbps | 16 bit | Горчаков Василий |
Аудио 6: AC3 | 5.1 | 48 kHz | 448 kbps | 16 bit | Дубровин Владимир |
Аудио 7: AC3 | 5.1 | 48 kHz | 448 kbps | 16 bit | Переговорщик Гаврилова-раннего |
Аудио 8: AC3 | 5.1 | 48 kHz | 448 kbps | 16 bit | Гланц Пётр+Лютая Евгения (псевдо-дубляж) DVO |
Аудио 9: AC3 | 5.1 | 48 kHz | 448 kbps | 16 bit | Тарадайкин Игорь+Германова Любовь [Премьер-видео] DVO |
Аудио 10: AC3 | 5.1 | 48 kHz | 448 kbps | 16 bit | Стрелков Станислав+Божок Татьяна [Киномания] [DDV] [Biz video] DVO |
Аудио 11: AC3 | 5.1 | 48 kHz | 448 kbps | 16 bit | Стрелков Станислав+Зотов Константин+Женщина [FDV] MVO |
Аудио 12: AC3 | 5.1 | 48 kHz | 448 kbps | 16 bit | Карусель DVO |
Аудио 13: AC3 | 5.1 | 48 kHz | 448 kbps | 16 bit | Андреев Вадим+Гнилова Людмила [НТВ=СТС] DVO |
Аудио 14: AC3 | 5.1 | 48 kHz | 448 kbps | 16 bit | Форостенко Олег+Филимонов Дмитрий+Казанцев Андрей+Никонова Жанна [ОРТ] MVO |
Аудио 15: AC3 | 5.1 | 48 kHz | 448 kbps | 16 bit | Телеканал 1+1 DVO | Украинский
Аудио 16: AC3 | 5.1 | 48 kHz | 448 kbps | 16 bit | Новый канал DVO | Украинский
Аудио 17: AC3 | 5.1 | 48 kHz | 448 kbps | 16 bit | ENG |
Субтитры: Русские (вшитые отключаемые), Английские (вшитые отключаемые)

MedifInfo

Видео
Идентификатор : 1
Формат : AVC
Формат/Информация : Advanced Video Codec
Профиль формата : High@L4.2
Параметр CABAC формата : Да
Параметр ReFrames формата : 3 кадра
Параметр GOP формата : M=3, N=59
Идентификатор кодека : V_MPEG4/ISO/AVC
Продолжительность : 1 ч. 56 м.
Вид битрейта : Переменный
Битрейт : 24,0 Мбит/сек
Максимальный битрейт : 25,0 Мбит/сек
Ширина : 1920 пикселей
Высота : 1040 пикселей
Соотношение сторон : 1,85:1
Режим частоты кадров : Постоянный
Частота кадров : 59,880 кадров/сек
Частота кадров в оригинале : 59,940 кадров/сек
Стандарт вещания : PAL
Цветовое пространство : YUV
Субдискретизация насыщенности : 4:2:0
Битовая глубина : 8 бит
Тип развёртки : Прогрессивная
Бит/(Пиксели*Кадры) : 0.201
Размер потока : 19,5 Гбайт (74%)
Заголовок : www.60-fps.org
Язык : English
Default : Да
Forced : Нет
Основные цвета : BT.709
Характеристики трансфера : BT.709
Коэффициенты матрицы : BT.709
colour_range : Limited
Аудио #1
Идентификатор : 2
Формат : AC-3
Формат/Информация : Audio Coding 3
Расширение режима : CM (complete main)
Параметр Endianness формата : Big
Идентификатор кодека : A_AC3
Продолжительность : 1 ч. 56 м.
Вид битрейта : Постоянный
Битрейт : 448 Кбит/сек
Каналы : 6 каналов
Расположение каналов : Front: L C R, Side: L R, LFE
Частота : 48,0 КГц
Битовая глубина : 16 бит
Метод сжатия : С потерями
Размер потока : 372 Мбайт (1%)
Заголовок : Дубляж с лицензии (Пифагор)
Default : Да
Forced : Нет
Аудио #2
Идентификатор : 3
Формат : AC-3
Формат/Информация : Audio Coding 3
Расширение режима : CM (complete main)
Параметр Endianness формата : Big
Идентификатор кодека : A_AC3
Продолжительность : 1 ч. 56 м.
Вид битрейта : Постоянный
Битрейт : 448 Кбит/сек
Каналы : 6 каналов
Расположение каналов : Front: L C R, Side: L R, LFE
Частота : 48,0 КГц
Битовая глубина : 16 бит
Метод сжатия : С потерями
Размер потока : 372 Мбайт (1%)
Заголовок : Гаврилов Андрей (ранний)
Default : Нет
Forced : Нет
Аудио #3
Идентификатор : 4
Формат : AC-3
Формат/Информация : Audio Coding 3
Расширение режима : CM (complete main)
Параметр Endianness формата : Big
Идентификатор кодека : A_AC3
Продолжительность : 1 ч. 56 м.
Вид битрейта : Постоянный
Битрейт : 448 Кбит/сек
Каналы : 6 каналов
Расположение каналов : Front: L C R, Side: L R, LFE
Частота : 48,0 КГц
Битовая глубина : 16 бит
Метод сжатия : С потерями
Размер потока : 372 Мбайт (1%)
Заголовок : Гаврилов Андрей (поздний)
Default : Нет
Forced : Нет
Аудио #4
Идентификатор : 5
Формат : AC-3
Формат/Информация : Audio Coding 3
Расширение режима : CM (complete main)
Параметр Endianness формата : Big
Идентификатор кодека : A_AC3
Продолжительность : 1 ч. 56 м.
Вид битрейта : Постоянный
Битрейт : 448 Кбит/сек
Каналы : 6 каналов
Расположение каналов : Front: L C R, Side: L R, LFE
Частота : 48,0 КГц
Битовая глубина : 16 бит
Метод сжатия : С потерями
Размер потока : 372 Мбайт (1%)
Заголовок : Михалёв Алексей
Default : Нет
Forced : Нет
Аудио #5
Идентификатор : 6
Формат : AC-3
Формат/Информация : Audio Coding 3
Расширение режима : CM (complete main)
Параметр Endianness формата : Big
Идентификатор кодека : A_AC3
Продолжительность : 1 ч. 56 м.
Вид битрейта : Постоянный
Битрейт : 448 Кбит/сек
Каналы : 6 каналов
Расположение каналов : Front: L C R, Side: L R, LFE
Частота : 48,0 КГц
Битовая глубина : 16 бит
Метод сжатия : С потерями
Размер потока : 372 Мбайт (1%)
Заголовок : Горчаков Василий
Default : Нет
Forced : Нет
Аудио #6
Идентификатор : 7
Формат : AC-3
Формат/Информация : Audio Coding 3
Расширение режима : CM (complete main)
Параметр Endianness формата : Big
Идентификатор кодека : A_AC3
Продолжительность : 1 ч. 56 м.
Вид битрейта : Постоянный
Битрейт : 448 Кбит/сек
Каналы : 6 каналов
Расположение каналов : Front: L C R, Side: L R, LFE
Частота : 48,0 КГц
Битовая глубина : 16 бит
Метод сжатия : С потерями
Размер потока : 372 Мбайт (1%)
Заголовок : Дубровин Владимир
Default : Нет
Forced : Нет
Аудио #7
Идентификатор : 8
Формат : AC-3
Формат/Информация : Audio Coding 3
Расширение режима : CM (complete main)
Параметр Endianness формата : Big
Идентификатор кодека : A_AC3
Продолжительность : 1 ч. 56 м.
Вид битрейта : Постоянный
Битрейт : 448 Кбит/сек
Каналы : 6 каналов
Расположение каналов : Front: L C R, Side: L R, LFE
Частота : 48,0 КГц
Битовая глубина : 16 бит
Метод сжатия : С потерями
Размер потока : 372 Мбайт (1%)
Заголовок : Переговорщик Гаврилова-раннего
Default : Нет
Forced : Нет
Аудио #8
Идентификатор : 9
Формат : AC-3
Формат/Информация : Audio Coding 3
Расширение режима : CM (complete main)
Параметр Endianness формата : Big
Идентификатор кодека : A_AC3
Продолжительность : 1 ч. 56 м.
Вид битрейта : Постоянный
Битрейт : 448 Кбит/сек
Каналы : 6 каналов
Расположение каналов : Front: L C R, Side: L R, LFE
Частота : 48,0 КГц
Битовая глубина : 16 бит
Метод сжатия : С потерями
Размер потока : 372 Мбайт (1%)
Заголовок : Гланц Пётр+Лютая Евгения (псевдо-дубляж) DVO
Default : Нет
Forced : Нет
Аудио #9
Идентификатор : 10
Формат : AC-3
Формат/Информация : Audio Coding 3
Расширение режима : CM (complete main)
Параметр Endianness формата : Big
Идентификатор кодека : A_AC3
Продолжительность : 1 ч. 56 м.
Вид битрейта : Постоянный
Битрейт : 448 Кбит/сек
Каналы : 6 каналов
Расположение каналов : Front: L C R, Side: L R, LFE
Частота : 48,0 КГц
Битовая глубина : 16 бит
Метод сжатия : С потерями
Размер потока : 372 Мбайт (1%)
Заголовок : Тарадайкин Игорь+Германова Любовь [Премьер-видео] DVO
Default : Нет
Forced : Нет
Аудио #10
Идентификатор : 11
Формат : AC-3
Формат/Информация : Audio Coding 3
Расширение режима : CM (complete main)
Параметр Endianness формата : Big
Идентификатор кодека : A_AC3
Продолжительность : 1 ч. 56 м.
Вид битрейта : Постоянный
Битрейт : 448 Кбит/сек
Каналы : 6 каналов
Расположение каналов : Front: L C R, Side: L R, LFE
Частота : 48,0 КГц
Битовая глубина : 16 бит
Метод сжатия : С потерями
Размер потока : 372 Мбайт (1%)
Заголовок : Стрелков Станислав+Божок Татьяна [Киномания] [DDV] [Biz video]
Default : Нет
Forced : Нет
Аудио #11
Идентификатор : 12
Формат : AC-3
Формат/Информация : Audio Coding 3
Расширение режима : CM (complete main)
Параметр Endianness формата : Big
Идентификатор кодека : A_AC3
Продолжительность : 1 ч. 56 м.
Вид битрейта : Постоянный
Битрейт : 448 Кбит/сек
Каналы : 6 каналов
Расположение каналов : Front: L C R, Side: L R, LFE
Частота : 48,0 КГц
Битовая глубина : 16 бит
Метод сжатия : С потерями
Размер потока : 372 Мбайт (1%)
Заголовок : Стрелков Станислав+Зотов Константин+Женщина [FDV] MVO
Default : Нет
Forced : Нет
Аудио #12
Идентификатор : 13
Формат : AC-3
Формат/Информация : Audio Coding 3
Расширение режима : CM (complete main)
Параметр Endianness формата : Big
Идентификатор кодека : A_AC3
Продолжительность : 1 ч. 56 м.
Вид битрейта : Постоянный
Битрейт : 448 Кбит/сек
Каналы : 6 каналов
Расположение каналов : Front: L C R, Side: L R, LFE
Частота : 48,0 КГц
Битовая глубина : 16 бит
Метод сжатия : С потерями
Размер потока : 372 Мбайт (1%)
Заголовок : Карусель DVO
Default : Нет
Forced : Нет
Аудио #13
Идентификатор : 14
Формат : AC-3
Формат/Информация : Audio Coding 3
Расширение режима : CM (complete main)
Параметр Endianness формата : Big
Идентификатор кодека : A_AC3
Продолжительность : 1 ч. 56 м.
Вид битрейта : Постоянный
Битрейт : 448 Кбит/сек
Каналы : 6 каналов
Расположение каналов : Front: L C R, Side: L R, LFE
Частота : 48,0 КГц
Битовая глубина : 16 бит
Метод сжатия : С потерями
Размер потока : 372 Мбайт (1%)
Заголовок : Андреев Вадим+Гнилова Людмила [НТВ=СТС] DVO
Default : Нет
Forced : Нет
Аудио #14
Идентификатор : 15
Формат : AC-3
Формат/Информация : Audio Coding 3
Расширение режима : CM (complete main)
Параметр Endianness формата : Big
Идентификатор кодека : A_AC3
Продолжительность : 1 ч. 56 м.
Вид битрейта : Постоянный
Битрейт : 448 Кбит/сек
Каналы : 6 каналов
Расположение каналов : Front: L C R, Side: L R, LFE
Частота : 48,0 КГц
Битовая глубина : 16 бит
Метод сжатия : С потерями
Размер потока : 372 Мбайт (1%)
Заголовок : Форостенко Олег+Филимонов Дмитрий+Казанцев Андрей+Никонова Жанна [ОРТ] MVO
Default : Нет
Forced : Нет
Аудио #15
Идентификатор : 16
Формат : AC-3
Формат/Информация : Audio Coding 3
Расширение режима : CM (complete main)
Параметр Endianness формата : Big
Идентификатор кодека : A_AC3
Продолжительность : 1 ч. 56 м.
Вид битрейта : Постоянный
Битрейт : 448 Кбит/сек
Каналы : 6 каналов
Расположение каналов : Front: L C R, Side: L R, LFE
Частота : 48,0 КГц
Битовая глубина : 16 бит
Метод сжатия : С потерями
Размер потока : 372 Мбайт (1%)
Заголовок : Телеканал 1+1 DVO
Default : Нет
Forced : Нет
Аудио #16
Идентификатор : 17
Формат : AC-3
Формат/Информация : Audio Coding 3
Расширение режима : CM (complete main)
Параметр Endianness формата : Big
Идентификатор кодека : A_AC3
Продолжительность : 1 ч. 56 м.
Вид битрейта : Постоянный
Битрейт : 448 Кбит/сек
Каналы : 6 каналов
Расположение каналов : Front: L C R, Side: L R, LFE
Частота : 48,0 КГц
Битовая глубина : 16 бит
Метод сжатия : С потерями
Размер потока : 372 Мбайт (1%)
Заголовок : Новый канал DVO
Default : Нет
Forced : Нет
Аудио #17
Идентификатор : 18
Формат : AC-3
Формат/Информация : Audio Coding 3
Расширение режима : CM (complete main)
Параметр Endianness формата : Big
Идентификатор кодека : A_AC3
Продолжительность : 1 ч. 56 м.
Вид битрейта : Постоянный
Битрейт : 448 Кбит/сек
Каналы : 6 каналов
Расположение каналов : Front: L C R, Side: L R, LFE
Частота : 48,0 КГц
Битовая глубина : 16 бит
Метод сжатия : С потерями
Размер потока : 372 Мбайт (1%)
Заголовок : ENG
Default : Нет
Forced : Нет
Текст #1
Идентификатор : 19
Формат : UTF-8
Идентификатор кодека : S_TEXT/UTF8
Идентификатор кодека/Информация : UTF-8 Plain Text
Default : Да
Forced : Нет
Текст #2
Идентификатор : 20
Формат : UTF-8
Идентификатор кодека : S_TEXT/UTF8
Идентификатор кодека/Информация : UTF-8 Plain Text
Default : Нет
Forced : Нет
Текст #3
Идентификатор : 21
Формат : UTF-8
Идентификатор кодека : S_TEXT/UTF8
Идентификатор кодека/Информация : UTF-8 Plain Text
Default : Нет
Forced : Нет

Релиз подготовлен 60 - fps

[Цитировать]
Тимур Артыков

Будут остальные части?

[Цитировать]
Kryl

4501Будут остальные части?
Смотря сколько человек скачает...
По 3 суток комп загружать на 100% не серьезно ради нескольких скачавших .

[Цитировать]
Тимур Артыков

KRYL, Щас будут качающие, дайте только на другой сайт закинуть

[Цитировать]
Kryl

кидайте , кто же не дает ))

[Цитировать]
dzubakr

а 720р будет? (желательно с 1 лицензионным переводом и видео 10 Мбит/сек)

[Цитировать]
Kryl

4505а 720р будет? (желательно с 1 лицензионным переводом и видео 10 Мбит/сек)
Нее , не будет ... :ac:

[Цитировать]
rembo1410

спасибо !!!!

[Цитировать]
vic516

нафига аж 17аудио дорог ?! Грущу

[Цитировать]
BagorBear

Дайте скорости Грущу

[Цитировать]
hlopeg

Один из моих самых любимых фильмов! Однозначно в коллекцию! Раздайте плиз, а я то уж посидирую потом.

[Цитировать]
Kryl

hlopeg,
К сожалению у меня нет уже этого видеофайла . Грущу

[Цитировать]
lamthuyvan8714

i can upload googledriver...ok? Хитренький

[Цитировать]
gexogen19

не могу скачать, подключение к пирам и все ;(

[Цитировать]
gexogen19

4502
4501Будут остальные части?
Смотря сколько человек скачает...
По 3 суток комп загружать на 100% не серьезно ради нескольких скачавших .
а когда появится раздача?
 
Показать сообщения:    

Текущее время: 27-Май 18:43

Часовой пояс: UTC + 3


Вы не можете начинать темы
Вы не можете отвечать на сообщения
Вы не можете редактировать свои сообщения
Вы не можете удалять свои сообщения
Вы не можете голосовать в опросах
Вы не можете прикреплять файлы к сообщениям
Вы не можете скачивать файлы