[Цитировать]
Kryl

«Все это о времени» Информация
Название: Назад в будущее 2
Оригинальное название: Back to the Future 2
Год выхода: 1989
Жанр: фантастика, комедия, приключения
Режиссер: Роберт Земекис
Сценарий: Роберт Земекис, Боб Гейл
Продюсер: Нил Кэнтон, Боб Гейл, Кэтлин Кеннеди
В ролях: Майкл Дж. Фокс, Кристофер Ллойд, Лиа Томпсон, Томас Ф. Уилсон, Элизабет Шу, Джеймс Толкан, Джеффри Вайсман, Кэйси Семашко, Билли Зейн, Дж.Дж. Коэн

Сюжет:
Продолжение фантастической истории о приключениях американского подростка во времени. На этот раз с помощью модернизированной Доком машины времени Марти из 80-х попадает в будущее.
Дети Марти в беде, и их надо выручать. Приходится повозиться со злодеем…

Страна: США
Продолжительность: 01:47:59

Файл
Кодек: MPEG4/ISO/AVC/H.264/
Формат: MKV
Качество: BDRip 1080p | 60 fps
Видео: 1920 x 1040 (1.846) | 59.940 fps | 30.0 Мбит/сек
Аудио 01: AC3 | 5.1 | 48 kHz | 448 kbps | 16 bit | Дублированный - Пифагор |
Аудио 02: AC3 | 5.1 | 48 kHz | 448 kbps | 16 bit | Профессиональный многоголосый - Премьер-видео |
Аудио 03: AC3 | 5.1 | 48 kHz | 448 kbps | 16 bit | Профессиональный многоголосый - Киномания | DDV | Biz video |
Аудио 04: AC3 | 5.1 | 48 kHz | 448 kbps | 16 bit | Профессиональный многоголосый - FDV |
Аудио 05: AC3 | 5.1 | 48 kHz | 448 kbps | 16 bit | Профессиональный многоголосый - НТВ | СТС |
Аудио 06: AC3 | 5.1 | 48 kHz | 448 kbps | 16 bit | Профессиональный многоголосый - ОРТ |
Аудио 07: AC3 | 5.1 | 48 kHz | 448 kbps | 16 bit | Профессиональный двухголосый - П.Гланц и Е.Лютая |
Аудио 08: AC3 | 5.1 | 48 kHz | 448 kbps | 16 bit | Профессиональный многоголосый - SDI Media |
Аудио 09: AC3 | 5.1 | 48 kHz | 448 kbps | 16 bit | Авторский одноголосый - Михалёв |
Аудио 10: AC3 | 5.1 | 48 kHz | 448 kbps | 16 bit | Авторский одноголосый - Сербин |
Аудио 11: AC3 | 5.1 | 48 kHz | 448 kbps | 16 bit | Авторский одноголосый - Гаврилов (ранний) |
Аудио 12: AC3 | 5.1 | 48 kHz | 448 kbps | 16 bit | Авторский одноголосый - Гаврилов (поздний) |
Аудио 13: AC3 | 5.1 | 48 kHz | 448 kbps | 16 bit | Авторский одноголосый - Горчаков |
Аудио 14: AC3 | 5.1 | 48 kHz | 448 kbps | 16 bit | Профессиональный многоголосый - 1+1 |
Аудио 15: AC3 | 5.1 | 48 kHz | 448 kbps | 16 bit | Профессиональный многоголосый - Новый канал |
Аудио 16: AC3 | 5.1 | 48 kHz | 448 kbps | 16 bit | English |
Субтитры: Русские, английские

MedifInfo

Видео
Идентификатор : 1
Формат : AVC
Формат/Информация : Advanced Video Codec
Профиль формата : High@L4.1
Параметр CABAC формата : Да
Параметр ReFrames формата : 4 кадра
Идентификатор кодека : V_MPEG4/ISO/AVC
Продолжительность : 1 ч. 47 м.
Битрейт : 30,0 Мбит/сек
Ширина : 1920 пикселей
Высота : 1040 пикселей
Соотношение сторон : 1,85:1
Режим частоты кадров : Постоянный
Частота кадров : 59,880 кадров/сек
Частота кадров в оригинале : 59,940 кадров/сек
Цветовое пространство : YUV
Субдискретизация насыщенности : 4:2:0
Битовая глубина : 8 бит
Тип развёртки : Прогрессивная
Бит/(Пиксели*Кадры) : 0.251
Размер потока : 22,0 Гбайт (79%)
Заголовок : www.60-fps.org
Библиотека кодирования : x264 core 148 r2744 b97ae06
Настройки программы : cabac=1 / ref=4 / deblock=1:-3:-3 / analyse=0x3:0x113 / me=umh / subme=8 / psy=1 / psy_rd=1.00:0.25 / mixed_ref=1 / me_range=32 / chroma_me=1 / trellis=1 / 8x8dct=1 / cqm=0 / deadzone=6,6 / fast_pskip=1 / chroma_qp_offset=-4 / threads=12 / lookahead_threads=2 / sliced_threads=0 / nr=0 / decimate=0 / interlaced=0 / bluray_compat=0 / constrained_intra=0 / bframes=3 / b_pyramid=2 / b_adapt=1 / b_bias=0 / direct=3 / weightb=1 / open_gop=0 / weightp=2 / keyint=599 / keyint_min=59 / scenecut=40 / intra_refresh=0 / rc_lookahead=50 / rc=2pass / mbtree=1 / bitrate=29999 / ratetol=1.0 / qcomp=0.80 / qpmin=0 / qpmax=69 / qpstep=4 / cplxblur=20.0 / qblur=0.5 / vbv_maxrate=62500 / vbv_bufsize=78125 / nal_hrd=none / filler=0 / ip_ratio=1.10 / aq=1:0.50
Default : Да
Forced : Нет
Аудио #1
Идентификатор : 2
Формат : AC-3
Формат/Информация : Audio Coding 3
Расширение режима : CM (complete main)
Параметр Endianness формата : Big
Идентификатор кодека : A_AC3
Продолжительность : 1 ч. 47 м.
Вид битрейта : Постоянный
Битрейт : 448 Кбит/сек
Каналы : 6 каналов
Расположение каналов : Front: L C R, Side: L R, LFE
Частота : 48,0 КГц
Битовая глубина : 16 бит
Метод сжатия : С потерями
Размер потока : 346 Мбайт (1%)
Заголовок : Пифагор
Язык : Russian
Default : Да
Forced : Нет
Аудио #2
Идентификатор : 3
Формат : AC-3
Формат/Информация : Audio Coding 3
Расширение режима : CM (complete main)
Параметр Endianness формата : Big
Идентификатор кодека : A_AC3
Продолжительность : 1 ч. 47 м.
Вид битрейта : Постоянный
Битрейт : 448 Кбит/сек
Каналы : 6 каналов
Расположение каналов : Front: L C R, Side: L R, LFE
Частота : 48,0 КГц
Битовая глубина : 16 бит
Метод сжатия : С потерями
Размер потока : 346 Мбайт (1%)
Заголовок : Премьер-видео
Язык : Russian
Default : Нет
Forced : Нет
Аудио #3
Идентификатор : 4
Формат : AC-3
Формат/Информация : Audio Coding 3
Расширение режима : CM (complete main)
Параметр Endianness формата : Big
Идентификатор кодека : A_AC3
Продолжительность : 1 ч. 47 м.
Вид битрейта : Постоянный
Битрейт : 448 Кбит/сек
Каналы : 6 каналов
Расположение каналов : Front: L C R, Side: L R, LFE
Частота : 48,0 КГц
Битовая глубина : 16 бит
Метод сжатия : С потерями
Размер потока : 346 Мбайт (1%)
Заголовок : Киномания | DDV | Biz video
Язык : Russian
Default : Нет
Forced : Нет
Аудио #4
Идентификатор : 5
Формат : AC-3
Формат/Информация : Audio Coding 3
Расширение режима : CM (complete main)
Параметр Endianness формата : Big
Идентификатор кодека : A_AC3
Продолжительность : 1 ч. 47 м.
Вид битрейта : Постоянный
Битрейт : 448 Кбит/сек
Каналы : 6 каналов
Расположение каналов : Front: L C R, Side: L R, LFE
Частота : 48,0 КГц
Битовая глубина : 16 бит
Метод сжатия : С потерями
Размер потока : 346 Мбайт (1%)
Заголовок : FDV
Язык : Russian
Default : Нет
Forced : Нет
Аудио #5
Идентификатор : 6
Формат : AC-3
Формат/Информация : Audio Coding 3
Расширение режима : CM (complete main)
Параметр Endianness формата : Big
Идентификатор кодека : A_AC3
Продолжительность : 1 ч. 47 м.
Вид битрейта : Постоянный
Битрейт : 448 Кбит/сек
Каналы : 6 каналов
Расположение каналов : Front: L C R, Side: L R, LFE
Частота : 48,0 КГц
Битовая глубина : 16 бит
Метод сжатия : С потерями
Размер потока : 346 Мбайт (1%)
Заголовок : НТВ | СТС
Язык : Russian
Default : Нет
Forced : Нет
Аудио #6
Идентификатор : 7
Формат : AC-3
Формат/Информация : Audio Coding 3
Расширение режима : CM (complete main)
Параметр Endianness формата : Big
Идентификатор кодека : A_AC3
Продолжительность : 1 ч. 47 м.
Вид битрейта : Постоянный
Битрейт : 448 Кбит/сек
Каналы : 6 каналов
Расположение каналов : Front: L C R, Side: L R, LFE
Частота : 48,0 КГц
Битовая глубина : 16 бит
Метод сжатия : С потерями
Размер потока : 346 Мбайт (1%)
Заголовок : ОРТ
Язык : Russian
Default : Нет
Forced : Нет
Аудио #7
Идентификатор : 8
Формат : AC-3
Формат/Информация : Audio Coding 3
Расширение режима : CM (complete main)
Параметр Endianness формата : Big
Идентификатор кодека : A_AC3
Продолжительность : 1 ч. 47 м.
Вид битрейта : Постоянный
Битрейт : 448 Кбит/сек
Каналы : 6 каналов
Расположение каналов : Front: L C R, Side: L R, LFE
Частота : 48,0 КГц
Битовая глубина : 16 бит
Метод сжатия : С потерями
Размер потока : 346 Мбайт (1%)
Заголовок : П.Гланц и Е.Лютая
Язык : Russian
Default : Нет
Forced : Нет
Аудио #8
Идентификатор : 9
Формат : AC-3
Формат/Информация : Audio Coding 3
Расширение режима : CM (complete main)
Параметр Endianness формата : Big
Идентификатор кодека : A_AC3
Продолжительность : 1 ч. 47 м.
Вид битрейта : Постоянный
Битрейт : 192 Кбит/сек
Каналы : 2 канала
Расположение каналов : Front: L R
Частота : 48,0 КГц
Битовая глубина : 16 бит
Метод сжатия : С потерями
Размер потока : 148 Мбайт (1%)
Заголовок : SDI Media
Язык : Russian
Default : Нет
Forced : Нет
Аудио #9
Идентификатор : 10
Формат : AC-3
Формат/Информация : Audio Coding 3
Расширение режима : CM (complete main)
Параметр Endianness формата : Big
Идентификатор кодека : A_AC3
Продолжительность : 1 ч. 47 м.
Вид битрейта : Постоянный
Битрейт : 448 Кбит/сек
Каналы : 6 каналов
Расположение каналов : Front: L C R, Side: L R, LFE
Частота : 48,0 КГц
Битовая глубина : 16 бит
Метод сжатия : С потерями
Размер потока : 346 Мбайт (1%)
Заголовок : Михалёв
Язык : Russian
Default : Нет
Forced : Нет
Аудио #10
Идентификатор : 11
Формат : AC-3
Формат/Информация : Audio Coding 3
Расширение режима : CM (complete main)
Параметр Endianness формата : Big
Идентификатор кодека : A_AC3
Продолжительность : 1 ч. 47 м.
Вид битрейта : Постоянный
Битрейт : 448 Кбит/сек
Каналы : 6 каналов
Расположение каналов : Front: L C R, Side: L R, LFE
Частота : 48,0 КГц
Битовая глубина : 16 бит
Метод сжатия : С потерями
Размер потока : 346 Мбайт (1%)
Заголовок : Сербин
Язык : Russian
Default : Нет
Forced : Нет
Аудио #11
Идентификатор : 12
Формат : AC-3
Формат/Информация : Audio Coding 3
Расширение режима : CM (complete main)
Параметр Endianness формата : Big
Идентификатор кодека : A_AC3
Продолжительность : 1 ч. 47 м.
Вид битрейта : Постоянный
Битрейт : 448 Кбит/сек
Каналы : 6 каналов
Расположение каналов : Front: L C R, Side: L R, LFE
Частота : 48,0 КГц
Битовая глубина : 16 бит
Метод сжатия : С потерями
Размер потока : 346 Мбайт (1%)
Заголовок : Гаврилов (ранний)
Язык : Russian
Default : Нет
Forced : Нет
Аудио #12
Идентификатор : 13
Формат : AC-3
Формат/Информация : Audio Coding 3
Расширение режима : CM (complete main)
Параметр Endianness формата : Big
Идентификатор кодека : A_AC3
Продолжительность : 1 ч. 47 м.
Вид битрейта : Постоянный
Битрейт : 448 Кбит/сек
Каналы : 6 каналов
Расположение каналов : Front: L C R, Side: L R, LFE
Частота : 48,0 КГц
Битовая глубина : 16 бит
Метод сжатия : С потерями
Размер потока : 346 Мбайт (1%)
Заголовок : Гаврилов (поздний)
Язык : Russian
Default : Нет
Forced : Нет
Аудио #13
Идентификатор : 14
Формат : AC-3
Формат/Информация : Audio Coding 3
Расширение режима : CM (complete main)
Параметр Endianness формата : Big
Идентификатор кодека : A_AC3
Продолжительность : 1 ч. 47 м.
Вид битрейта : Постоянный
Битрейт : 448 Кбит/сек
Каналы : 6 каналов
Расположение каналов : Front: L C R, Side: L R, LFE
Частота : 48,0 КГц
Битовая глубина : 16 бит
Метод сжатия : С потерями
Размер потока : 346 Мбайт (1%)
Заголовок : Горчаков
Язык : Russian
Default : Нет
Forced : Нет
Аудио #14
Идентификатор : 15
Формат : AC-3
Формат/Информация : Audio Coding 3
Расширение режима : CM (complete main)
Параметр Endianness формата : Big
Идентификатор кодека : A_AC3
Продолжительность : 1 ч. 47 м.
Вид битрейта : Постоянный
Битрейт : 448 Кбит/сек
Каналы : 6 каналов
Расположение каналов : Front: L C R, Side: L R, LFE
Частота : 48,0 КГц
Битовая глубина : 16 бит
Метод сжатия : С потерями
Размер потока : 346 Мбайт (1%)
Заголовок : 1+1
Язык : Russian
Default : Нет
Forced : Нет
Аудио #15
Идентификатор : 16
Формат : AC-3
Формат/Информация : Audio Coding 3
Расширение режима : CM (complete main)
Параметр Endianness формата : Big
Идентификатор кодека : A_AC3
Продолжительность : 1 ч. 47 м.
Вид битрейта : Постоянный
Битрейт : 448 Кбит/сек
Каналы : 6 каналов
Расположение каналов : Front: L C R, Side: L R, LFE
Частота : 48,0 КГц
Битовая глубина : 16 бит
Метод сжатия : С потерями
Размер потока : 346 Мбайт (1%)
Заголовок : Новый канал
Язык : Russian
Default : Нет
Forced : Нет
Аудио #16
Идентификатор : 17
Формат : AC-3
Формат/Информация : Audio Coding 3
Расширение режима : CM (complete main)
Параметр Endianness формата : Big
Идентификатор кодека : A_AC3
Продолжительность : 1 ч. 47 м.
Вид битрейта : Постоянный
Битрейт : 448 Кбит/сек
Каналы : 6 каналов
Расположение каналов : Front: L C R, Side: L R, LFE
Частота : 48,0 КГц
Битовая глубина : 16 бит
Метод сжатия : С потерями
Размер потока : 346 Мбайт (1%)
Язык : English
Default : Нет
Forced : Нет
Текст #1
Идентификатор : 18
Формат : UTF-8
Идентификатор кодека : S_TEXT/UTF8
Идентификатор кодека/Информация : UTF-8 Plain Text
Заголовок : Forced
Язык : Russian
Default : Да
Forced : Нет
Текст #2
Идентификатор : 19
Формат : UTF-8
Идентификатор кодека : S_TEXT/UTF8
Идентификатор кодека/Информация : UTF-8 Plain Text
Заголовок : v 1.0
Язык : Russian
Default : Нет
Forced : Нет
Текст #3
Идентификатор : 20
Формат : UTF-8
Идентификатор кодека : S_TEXT/UTF8
Идентификатор кодека/Информация : UTF-8 Plain Text
Заголовок : v 2.0
Язык : Russian
Default : Нет
Forced : Нет
Текст #4
Идентификатор : 21
Формат : UTF-8
Идентификатор кодека : S_TEXT/UTF8
Идентификатор кодека/Информация : UTF-8 Plain Text
Язык : English
Default : Нет
Forced : Нет
Текст #5
Идентификатор : 22
Формат : UTF-8
Идентификатор кодека : S_TEXT/UTF8
Идентификатор кодека/Информация : UTF-8 Plain Text
Заголовок : SDH
Язык : English
Default : Нет
Forced : Нет
Меню
00:00:00.000 : en:1. Back From the Future
00:02:57.510 : en:2. Main Titles
00:04:17.632 : en:3. Hill Valley, 2015
00:12:44.388 : en:4. Marty Junior?
00:17:09.111 : en:5. Batter Up!
00:21:16.525 : en:6. The Almanac
00:26:59.659 : en:7. The Future McFlys
00:34:15.428 : en:8. Chicken
00:38:32.476 : en:9. Past Imperfect
00:46:13.061 : en:10. My Father?
00:50:35.449 : en:11. An Alternate 1985
00:55:32.620 : en:12. About That Book
01:01:30.144 : en:13. Back to 1955
01:07:14.196 : en:14. Biff's Lucky Day
01:14:45.939 : en:15. Back to the Dance
01:28:00.608 : en:16. Get That Book!
01:34:43.302 : en:17. Back to Normal?
01:37:46.026 : en:18. A Letter From 1985
01:40:37.239 : en:19. I'm Back!
01:43:25.490 : en:20. End Titles

Релиз подготовлен 60 - fps

[Цитировать]
evro.

огромный респект за такие раздачи! классика вечна!

[Цитировать]
wuprenumfox

Просим третий!

[Цитировать]
Талямба

wuprenumfox, он есть,поискать на сайте нужно... !

[Цитировать]
wuprenumfox

8733wuprenumfox, он есть,поискать на сайте нужно... !
Спасибо! Нашел.
 
Показать сообщения:    

Текущее время: 18-Окт 13:59

Часовой пояс: UTC + 3


Вы не можете начинать темы
Вы не можете отвечать на сообщения
Вы не можете редактировать свои сообщения
Вы не можете удалять свои сообщения
Вы не можете голосовать в опросах
Вы не можете прикреплять файлы к сообщениям
Вы не можете скачивать файлы