Rammstein (БЕЗ ЦЕНЗУРЫ)| WEBRip 1080p | 60 fps Britney Spears - Oops! I Did It Again Uncut (2009) HD 1080p | 60 fps BLACKPINK | WEBRip 1080p | 60 fps Jennifer Lopez ft. Iggy Azalea - Booty (2014) Full HD 1080p | 60 fps Britney Spears - Toxic (2004) HDTVRip 1080p | 60 fps Lady Gaga - Poker Face (2009) Full HD 1080p | 60 fps Britney Spears - Criminal (2011) BDRip 1080p | 60 fps Britney Spears - ...Baby One More Time (2009) Full HD 1080p | 60 fps
  1. Longevity:
    6 years
    Posts:
    2419
    Gender:
    Male
    --Натали - Володя (2015) WEBRip 1080p | 60 fps --Информация о Клипе
    Исполнитель: Натали
    Название: Володя
    Год выхода: 2015
    Продолжительность: 00:03:18
    О клипе:
    Натали выпустила видео на песню «Володя», слова и музыку которой написала сама артистка.
    Съемки клипа проходили в Москве в самый жаркий день прошедшего лета при температуре воздуха +37. Режиссером видео стал Рустам Романов — автор популярного видео Натали и MC Doni «Ты такой», которое набрало почти 40 миллионов просмотров в Интернете.
    Кстати, в съемках видео принял участие старший сын Натали Арсений, сыгравший одного из футболистов.
    -Файл
    Кодек: MPEG4/ISO/AVC/ H.264
    Формат: MKV
    Качество: WEBRip 1080p
    Видео: 1920 x 800 (2.400) at 60.000 fps 5.0 Мбит/сек
    Аудио: MP3| 320 Кбит/сек | 44.1 KHz | 2 channels

    MI

    Видео
    Идентификатор : 1
    Формат : AVC
    Формат/Информация : Advanced Video Codec
    Профиль формата : High@L4.2
    Параметр CABAC формата : Да
    Параметр ReFrames формата : 3 кадра
    Идентификатор кодека : V_MPEG4/ISO/AVC
    Продолжительность : 3 м. 18 с.
    Вид битрейта : Переменный
    Битрейт : 4892 Кбит/сек
    Максимальный битрейт : 5000 Кбит/сек
    Ширина : 1920 пикселей
    Высота : 800 пикселей
    Соотношение сторон : 2,40:1
    Режим частоты кадров : Постоянный
    Частота кадров : 60,000 кадров/сек
    Стандарт вещания : PAL
    Цветовое пространство : YUV
    Субдискретизация насыщенности : 4:2:0
    Битовая глубина : 8 бит
    Тип развёртки : Прогрессивная
    Бит/(Пиксели*Кадры) : 0.053
    Размер потока : 115 Мбайт (92%)
    Заголовок : www.60-fps.org
    Язык : English
    Default : Да
    Forced : Нет
    Основные цвета : BT.709
    Характеристики трансфера : BT.709
    Коэффициенты матрицы : BT.709
    colour_range : Limited
    Аудио
    Идентификатор : 2
    Формат : MPEG Audio
    Версия формата : Version 1
    Профиль формата : Layer 3
    Режим : Joint stereo
    Расширение режима : MS Stereo
    Идентификатор кодека : A_MPEG/L3
    Идентификатор кодека/Подсказка : MP3
    Продолжительность : 3 м. 17 с.
    Вид битрейта : Постоянный
    Битрейт : 320 Кбит/сек
    Каналы : 2 канала
    Частота : 44,1 КГц
    Метод сжатия : С потерями
    Размер потока : 7,55 Мбайт (6%)
    Заголовок : MP 3
    Библиотека кодирования : LAME3.99.5
    Default : Да
    Forced : Нет

    Release was prepared by 60 - fps

  2. Longevity:
    5 years 11 months
    Posts:
    50
    Gender:
    Male
    Спасибо! Профессионально. В последнее время мало таких простых и мелодичных песен и клипов. Жаль... Вот может этот ещё: http://my-files.ru/qoghi9 С уважением Toolmakerr.
    25-Nov-2015 04:41 (after 2 days 17 hours)
  3. Longevity:
    6 years
    Posts:
    2419
    Gender:
    Male
    4583Спасибо! Профессионально. В последнее время мало таких простых и мелодичных песен и клипов. Жаль... Вот может этот ещё: http://my-files.ru/qoghi9 С уважением Toolmakerr.
    По Вашей ссылке уже готовый 60fps , правда кривоватый аспект )))
    26-Nov-2015 13:55 (after 1 day 9 hours)
  4. Longevity:
    5 years 11 months
    Posts:
    50
    Gender:
    Male
    Да, верно. Просто я клип сам перевёл в 60fps. Огрехи я и сам вижу. За критику спасибо!
    26-Nov-2015 14:04 (after 9 minutes)
  5. Longevity:
    6 years
    Posts:
    2419
    Gender:
    Male
    Дайте ссылку на исходник .
    26-Nov-2015 14:07 (after 2 minutes)
  6. Longevity:
    5 years 11 months
    Posts:
    50
    Gender:
    Male
    Исходник конечно не очень: https://www.youtube.com/watch?v=QMBAl5-AWV0 Вот другой пример с того же ресурса, но качеством повыше: http://my-files.ru/jwwz0e Оба материала имеют широкое хождение в сети Интернета и на музыкальных каналах ТВ России. Мы только делаем их лучше для восприятия...
    26-Nov-2015 15:22 (after 1 hour 15 minutes)
  7. Longevity:
    6 years
    Posts:
    2419
    Gender:
    Male
    toolmakerr, Так делились бы с народом тут )))
    26-Nov-2015 15:35 (after 12 minutes)
  8. Longevity:
    5 years 11 months
    Posts:
    50
    Gender:
    Male
    Спасибо. Но Ваша технология серьёзней по прорисовке кадров. Мой способ несколько упрощённый, отсюда и артефакты. Я никогда не работал со скриптами. В этом главная проблема. Кто-то из флудилки предлагал Вам сделать видеоурок. Вот классно бы было. Приятно иметь дело с профессионалами. С уважением Toolmakerr.
    26-Nov-2015 16:08 (after 33 minutes)
  9. Longevity:
    6 years
    Posts:
    2419
    Gender:
    Male
    Так видео же есть давно в этой теме :
    https://60-fps.org/viewtopic.php?t=209
    Вот прямая ссылка
    http://www.youtube.com/watch?v=2xc08TPwb78&feature=youtu.be
    26-Nov-2015 16:20 (after 11 minutes)
  10. Longevity:
    5 years 11 months
    Posts:
    50
    Gender:
    Male
    Спасибо.
    26-Nov-2015 17:14 (after 53 minutes)


You cannot post new topics in this forum
You cannot reply to topics in this forum
You cannot edit your posts in this forum
You cannot delete your posts in this forum
You cannot vote in polls in this forum
You cannot attach files in this forum
You cannot download files in this forum