[Цитировать]
kamikkadze

Натали - Шахерезада (2014) HDTVRip 1080p | 60 fps
Информация о Клипе:
Исполнитель: Натали
Название: Шахерезада
Год выпуска: 2014 г.
Жанр: Поп
Страна: Россия
Режиссер: Мария Скобелева
Продолжительность: 3 м. 20 с.
В ролях: Наталья Рудина

Описание: Натали поддерживает новый всплеск своей певческой карьеры, внося в своё творчество немного восточного колорита. Впрочем, кроме названия и некоторых восточных ноток в музыке, автором которой является сама исполнительница, клип вполне себе европейский.

Файл:
Формат видео: MKV
Качество видео: HDTVRip 1080p | 60fps
Видео кодек: H.264
Аудио кодек: AC3
Видео: 1920x792 | 59.940 fps | 19,8 Мбит/сек
Аудио: AC3 | 2 | 48 kHz |384 Кбит/сек

Отчёт MediaInfo

Видео
Идентификатор : 1
Формат : AVC
Формат/Информация : Advanced Video Codec
Профиль формата : High@L4.2
Параметр CABAC формата : Да
Параметр ReFrames формата : 4 кадра
Идентификатор кодека : V_MPEG4/ISO/AVC
Продолжительность : 3 м. 20 с.
Битрейт : 19,8 Мбит/сек
Ширина : 1920 пикселей
Высота : 798 пикселей
Соотношение сторон : 2,40:1
Режим частоты кадров : Постоянный
Частота кадров : 59,880 кадров/сек
Частота кадров в оригинале : 59,940 кадров/сек
Цветовое пространство : YUV
Субдискретизация насыщенности : 4:2:0
Битовая глубина : 8 бит
Тип развёртки : Прогрессивная
Бит/(Пиксели*Кадры) : 0.216
Размер потока : 464 Мбайт (96%)
Заголовок : Rip By Kamikkadze(Специально для проекта 60-fps.org)
Библиотека кодирования : x264 core 146 r2538 121396c
Настройки программы : cabac=1 / ref=3 / deblock=1:0:0 / analyse=0x3:0x113 / me=hex / subme=7 / psy=1 / psy_rd=1.00:0.00 / mixed_ref=1 / me_range=16 / chroma_me=1 / trellis=1 / 8x8dct=1 / cqm=0 / deadzone=21,11 / fast_pskip=1 / chroma_qp_offset=-2 / threads=6 / lookahead_threads=1 / sliced_threads=0 / nr=0 / decimate=1 / interlaced=0 / bluray_compat=0 / constrained_intra=0 / bframes=3 / b_pyramid=2 / b_adapt=1 / b_bias=0 / direct=1 / weightb=1 / open_gop=0 / weightp=2 / keyint=250 / keyint_min=25 / scenecut=40 / intra_refresh=0 / rc_lookahead=40 / rc=2pass / mbtree=1 / bitrate=19777 / ratetol=1.0 / qcomp=0.60 / qpmin=0 / qpmax=69 / qpstep=4 / cplxblur=20.0 / qblur=0.5 / ip_ratio=1.40 / aq=1:1.00
Default : Да
Forced : Нет
Аудио
Идентификатор : 2
Формат : AC-3
Формат/Информация : Audio Coding 3
Расширение режима : CM (complete main)
Параметр Endianness формата : Big
Идентификатор кодека : A_AC3
Продолжительность : 3 м. 20 с.
Вид битрейта : Постоянный
Битрейт : 384 Кбит/сек
Каналы : 2 канала
Расположение каналов : Front: L R
Частота : 48,0 КГц
Битовая глубина : 16 бит
Метод сжатия : С потерями
Размер потока : 9,18 Мбайт (2%)
Заголовок : Rip By Kamikkadze(Специально для проекта 60-fps.org)
Default : Да
Forced : Нет
Просьба к переливающим на другие сайты, в оформлении указывайте пожалуйста авторство рипа - Kamikkadze

Релиз подготовлен 60 - fps

[60-fps.org].t674.torrent
Торрент: Зарегистрирован [ 2015-05-16 14:00 ] · E672094D21A2E3B27303E4105932C2DDAD2E0BA5

Скачать .torrent

Скачать

19 KB

Статус: проверено
Скачан: 47 раз
Поблагодарили:
Размер: 482 MB
 
Похожие Темы
 
Показать сообщения:    

Текущее время: 20-Фев 02:29

Часовой пояс: UTC + 3


Вы не можете начинать темы
Вы не можете отвечать на сообщения
Вы не можете редактировать свои сообщения
Вы не можете удалять свои сообщения
Вы не можете голосовать в опросах
Вы не можете прикреплять файлы к сообщениям
Вы можете скачивать файлы