[Цитировать]
kamikkadze

Натали - Шахерезада (2014) HDTVRIP 1080p | 60 fps Информация о Клипе
Год выпуска: 2014 г.
Жанр: Поп
Страна: Россия
Режиссер: Мария Скобелева
Продолжительность: 3 м. 20 с.
В ролях: Наталья Рудина
Описание: Натали поддерживает новый всплеск своей певческой карьеры, внося в своё творчество немного восточного колорита. Впрочем, кроме названия и некоторых восточных ноток в музыке, автором которой является сама исполнительница, клип вполне себе европейский.
Файл
Формат видео: MKV
Качество видео: HDTVRip 1080p | 60fps
Видео кодек: H.264
Аудио кодек: AC3
Видео: 1920x792 | 59.940 fps | 6415 Кбит/сек
Аудио: AC3 | 2 | 48 kHz |384 Кбит/сек

Отчёт MediaInfo

Видео
Идентификатор : 1
Формат : AVC
Формат/Информация : Advanced Video Codec
Профиль формата : High@L4.1
Параметр CABAC формата : Да
Параметр ReFrames формата : 4 кадра
Идентификатор кодека : V_MPEG4/ISO/AVC
Продолжительность : 3 м. 20 с.
Битрейт : 6415 Кбит/сек
Ширина : 1920 пикселей
Высота : 792 пикселя
Соотношение сторон : 2,40:1
Режим частоты кадров : Постоянный
Частота кадров : 59,880 кадров/сек
Частота кадров в оригинале : 59,940 кадров/сек
Цветовое пространство : YUV
Субдискретизация насыщенности : 4:2:0
Битовая глубина : 8 бит
Тип развёртки : Прогрессивная
Бит/(Пиксели*Кадры) : 0.070
Размер потока : 153 Мбайт (92%)
Заголовок : Rip By Kamikkadze(Специально для Сайта 60-fps.org)
Библиотека кодирования : x264 core 130 r2273 b3065e6
Настройки программы : cabac=1 / ref=4 / deblock=1:-1:-1 / analyse=0x3:0x113 / me=umh / subme=7 / psy=1 / psy_rd=1.00:0.10 / mixed_ref=1 / me_range=16 / chroma_me=1 / trellis=2 / 8x8dct=1 / cqm=0 / deadzone=21,11 / fast_pskip=0 / chroma_qp_offset=-3 / threads=6 / lookahead_threads=1 / sliced_threads=0 / nr=0 / decimate=1 / interlaced=0 / bluray_compat=0 / constrained_intra=0 / bframes=3 / b_pyramid=2 / b_adapt=2 / b_bias=0 / direct=3 / weightb=1 / open_gop=0 / weightp=2 / keyint=250 / keyint_min=25 / scenecut=40 / intra_refresh=0 / rc_lookahead=50 / rc=crf / mbtree=1 / crf=21.0 / qcomp=0.60 / qpmin=0 / qpmax=69 / qpstep=4 / vbv_maxrate=50000 / vbv_bufsize=50000 / crf_max=0.0 / nal_hrd=none / ip_ratio=1.40 / aq=1:1.00
Язык : Russian
Default : Да
Forced : Нет
Аудио
Идентификатор : 2
Формат : AC-3
Формат/Информация : Audio Coding 3
Расширение режима : CM (complete main)
Параметр Endianness формата : Big
Идентификатор кодека : A_AC3
Продолжительность : 3 м. 20 с.
Вид битрейта : Постоянный
Битрейт : 384 Кбит/сек
Каналы : 2 канала
Расположение каналов : Front: L R
Частота : 48,0 КГц
Битовая глубина : 16 бит
Метод сжатия : С потерями
Размер потока : 9,18 Мбайт (6%)
Заголовок : Rip By Kamikkadze(Специально для Сайта 60-fps.org)
Язык : Russian
Default : Да
Forced : Нет

Скриншоты

[Цитировать]
ZHz

я бы рекомендовал вам быть по внимательнее с кропом, снизу осталась черная полоска шириной в пару пикселов и она упорно дает артефакты
 
Показать сообщения:    

Текущее время: 02-Дек 21:05

Часовой пояс: UTC + 3


Вы не можете начинать темы
Вы не можете отвечать на сообщения
Вы не можете редактировать свои сообщения
Вы не можете удалять свои сообщения
Вы не можете голосовать в опросах
Вы не можете прикреплять файлы к сообщениям
Вы не можете скачивать файлы