Агент Ева / Ava (2020) BDRip 1080p | 60 fps Танго и Кэш / Tango & Cash (1989) BDRemux 1080p | 60 fps Властелин колец: Трилогия / The Lord of the Rings: Trilogy (2001-2003) BDRip-AVC | Extended Cut | 60 fps Ультрафиолет / Ultraviolet (2006) BDRip 1080p | 60 fps Вивариум / Vivarium (2019) BDRip 720p | 60 fps Девушка-невидимка / Shadow Girl (2019) BDRip 720p | 60 fps Не входи / The Owners(2020) BDRip 720p | 60 fps Достать ножи / Knives Out (2019) BDRip 1080p | 60 fps
  1. Longevity:
    6 years 7 months
    Posts:
    2414
    Gender:
    Male
    «Хотите – верьте, хотите – нет, вы скоро влюбитесь!»- Информация
    Название: Наши любовники
    Оригинальное название: Nuestros amantes
    Год выхода: 2016
    Жанр: Мелодрама, драма, комедия
    Режиссер: Мигель Анхель Ламата
    Сценарий: Мигель Анхель Ламата
    Продюсер: Рауль Гарсия Медрано
    В ролях: Эдуардо Норьега, Мишель Хеннер, Феле Мартинес, Амайя Саламанка, Габино Диего, Хорхе Усон, Мария Хосе Морено, Кристина Джэллего, Саломе Хименес, Ирен Лопес Кабальеро
    --Сюжет:
    Карлос — умный и привлекательный, но выглядит грустно, будто судьба совсем не балует его. Однажды он отправляется в книжный бар, чтобы впервые в жизни выпить бренди. Ирен — прирожденная выдумщица и завсегдатай этого места.
    Они встретились не случайно: его сердце разбито, ее — растоптано. Один взгляд и между ними вспыхивает роман под выдуманными именами, импровизация без всякой спешки и обязательств. Вместе они отказываются от реальной жизни и с азартом окунаются в новый, иллюзорный мир, отправляя нас в приключение, наполненное юмором и нежностью.
    - Страна: Испания
    Продолжительность: 01:31:48

    Файл
    Кодек: MPEG4/ISO/AVC/H.264
    Формат: MKV
    Качество: BDRip 720p | 60 fps
    Видео: 1280 x 536 (2.388) | 60.000 fps | 8.0 Мбит/сек
    Аудио: AC3 | 5.1 | 48 kHz | 384 kbps | 16 bit | Профессиональный многоголосый закадровый - iTunes |

    MedifInfo

    Видео
    Идентификатор : 1
    Формат : AVC
    Формат/Информация : Advanced Video Codec
    Профиль формата : [email protected]
    Параметр CABAC формата : Да
    Параметр ReFrames формата : 3 кадра
    Параметр GOP формата : M=3, N=72
    Идентификатор кодека : V_MPEG4/ISO/AVC
    Продолжительность : 1 ч. 31 м.
    Вид битрейта : Переменный
    Битрейт : 7668 Кбит/сек
    Максимальный битрейт : 8000 Кбит/сек
    Ширина : 1280 пикселей
    Высота : 536 пикселей
    Соотношение сторон : 2,40:1
    Режим частоты кадров : Постоянный
    Частота кадров : 60,000 кадров/сек
    Стандарт вещания : PAL
    Цветовое пространство : YUV
    Субдискретизация насыщенности : 4:2:0
    Битовая глубина : 8 бит
    Тип развёртки : Прогрессивная
    Бит/(Пиксели*Кадры) : 0.186
    Размер потока : 4,92 Гбайт (93%)
    Заголовок : www.60-fps.org
    Язык : English
    Default : Да
    Forced : Нет
    Основные цвета : BT.601 NTSC
    Характеристики трансфера : BT.601
    Коэффициенты матрицы : BT.601
    colour_range : Limited
    Аудио
    Идентификатор : 2
    Формат : AC-3
    Формат/Информация : Audio Coding 3
    Расширение режима : CM (complete main)
    Параметр Endianness формата : Big
    Идентификатор кодека : A_AC3
    Продолжительность : 1 ч. 31 м.
    Вид битрейта : Постоянный
    Битрейт : 384 Кбит/сек
    Каналы : 6 каналов
    Расположение каналов : Front: L C R, Side: L R, LFE
    Частота : 48,0 КГц
    Битовая глубина : 16 бит
    Метод сжатия : С потерями
    Размер потока : 252 Мбайт (5%)
    Заголовок : Профессиональный многоголосый закадровый - iTunes
    Язык : Russian
    Default : Да
    Forced : Нет
    Меню
    00:00:00.000 : en:00:00:00.000
    00:05:00.000 : en:00:05:00.000
    00:10:00.000 : en:00:10:00.000
    00:15:00.000 : en:00:15:00.000
    00:20:00.000 : en:00:20:00.000
    00:25:00.000 : en:00:25:00.000
    00:30:00.000 : en:00:30:00.000
    00:35:00.000 : en:00:35:00.000
    00:40:00.000 : en:00:40:00.000
    00:45:00.000 : en:00:45:00.000
    00:50:00.000 : en:00:50:00.000
    00:55:00.000 : en:00:55:00.000
    01:00:00.000 : en:01:00:00.000
    01:05:00.000 : en:01:05:00.000
    01:10:00.000 : en:01:10:00.000
    01:15:00.000 : en:01:15:00.000
    01:20:00.000 : en:01:20:00.000
    01:25:00.000 : en:01:25:00.000
    01:30:00.000 : en:01:30:00.000

    Release was prepared by 60-fps.org



You cannot post new topics in this forum
You cannot reply to topics in this forum
You cannot edit your posts in this forum
You cannot delete your posts in this forum
You cannot vote in polls in this forum
You cannot attach files in this forum
You cannot download files in this forum